Loading...
Error

Париж, я люблю тебя / Paris, je t`aime (Оливье Ассайас, Альфонсо Куарон, Жерар Депардье) [2006 г., мелодрама, комедия, BDRip]

Статистика раздачи
Размер:  2,18 GB   |    Зарегистрирован:  4 года 5 месяцев   |    Скачан:  26 раз

Полного источника не было: 1 день 22 часа

Сидов:  0  |  0 KB/s  ]   Личеров:  0  |  0 KB/s  ]

* - сиды/пиры с внешних источников

   
 
Автор Сообщение

garry Пол:Муж

10-Июн-2012 10:10

Париж, я люблю тебя / Paris, je t`aime


Год выпуска: 2006
Жанр: мелодрама, комедия
Страна: Франция , Германия , Швейцария , Лихтенштейн
Режиссер: Оливье Ассайас, Альфонсо Куарон, Жерар Депардье
В ролях: Натали Портман, Жерар Депардье, Ольга Куриленко, Элайджа Вуд, Стив Бушеми, Гаспар Ульель, Миранда Ричардсон, Жюльет Бинош, Уиллем Дефо, Ник Нолти
Сюжет фильма:
За пять минут рассказать и показать историю любви на фоне одного из парижских кварталов вот какая задача была поставлена перед двадцатью режиссерами из разных стран мира. В свете последних событий, когда многим кажется, что образ Парижа потускнел, режиссеры из разных уголков мира смогли полностью опровергнуть это мнение.

Им удалось вновь зажечь пламя, которое считалось угасшим. Они заставляют нас опять обратить внимание на Париж, показывая нашу повседневную жизнь в совершенно неожиданном свете. Они создали фильм о любви, фильм, в каждом кадре которого можно расслышать, как бьются сердца его героев. Нежно. Сильно. Страстно!

  • Мировая премьера: 18 мая 2006
  • Российская премьера: 30 ноября 2006, Централ Партнершип


Качество видео: BDRip

Продолжительность: 02:00:25

Формат: avi
Видео: XviD, 720x384, 1810 kbps
Аудио #1: русский, многоголосый закадровый (профессиональный), AC3 5.1, 384 kbps
Аудио #2: французский, оригинал, AC3 5.1, 384 kbps

Код:

General
Complete name                    : D:\Video\Movies\Parij.Ya.Lyublyu.Tebya.2006.DUAL.BDRip.XviD.AC3.-HQCLUB.avi
Format                           : AVI
Format/Info                      : Audio Video Interleave
Format profile                   : OpenDML
File size                        : 2.18 GiB
Duration                         : 2h 0mn
Overall bit rate                 : 2 596 Kbps
Writing application              : VirtualDubMod 1.5.10.2 (build 2542/release)
Writing library                  : VirtualDubMod build 2542/release

Video
ID                               : 0
Format                           : MPEG-4 Visual
Format profile                   : Streaming Video@L1
Format settings, BVOP            : Yes
Format settings, QPel            : No
Format settings, GMC             : No warppoints
Format settings, Matrix          : Default (MPEG)
Codec ID                         : XVID
Codec ID/Hint                    : XviD
Duration                         : 2h 0mn
Bit rate                         : 1 810 Kbps
Width                            : 720 pixels
Height                           : 384 pixels
Display aspect ratio             : 1.875
Frame rate                       : 23.976 fps
Resolution                       : 24 bits
Colorimetry                      : 4:2:0
Scan type                        : Progressive
Bits/(Pixel*Frame)               : 0.273
Stream size                      : 1.52 GiB (70%)
Writing library                  : XviD 1.2.1 (UTC 2008-12-04)

Audio #1
ID                               : 1
Format                           : AC-3
Format/Info                      : Audio Coding 3
Codec ID                         : 2000
Duration                         : 2h 0mn
Bit rate mode                    : Constant
Bit rate                         : 384 Kbps
Channel(s)                       : 6 channels
Channel positions                : Front: L C R, Surround: L R, LFE
Sampling rate                    : 48.0 KHz
Stream size                      : 331 MiB (15%)
Alignment                        : Split accross interleaves
Interleave, duration             : 42 ms (1.00 video frame)
Interleave, preload duration     : 500 ms

Audio #2
ID                               : 2
Format                           : AC-3
Format/Info                      : Audio Coding 3
Codec ID                         : 2000
Duration                         : 2h 0mn
Bit rate mode                    : Constant
Bit rate                         : 384 Kbps
Channel(s)                       : 6 channels
Channel positions                : Front: L C R, Surround: L R, LFE
Sampling rate                    : 48.0 KHz
Stream size                      : 331 MiB (15%)
Alignment                        : Split accross interleaves
Interleave, duration             : 42 ms (1.00 video frame)
Interleave, preload duration     : 500 ms

Семпл: http://multi-up.com/716519

Релиз группы:
picpicpic
Для увеличения картинки щелкните мышкой по превью

Этот торрент недоступен для скачивания без регистрации, однако доступен по публичной magnet-ссылке (источники с публичных трекеров). Перед использованием ссылки прочтите, пожалуйста Пользовательское соглашение, а также как можно дольше оставайтесь на раздаче! Для того, чтобы скачать сам торрент-файл (который видит больше источников), а также для того, чтобы поблагодарить релизера, вам необходимо зарегистрироваться. Если регистрироваться лень - вы можете также попробовать скачать релиз по нашим партнерским ссылкам ниже.

[underverse.su].t18214.torrent
Трекер: Зарегистрирован   [ 10.06.2012 10:10 ]  

Статус: проверено (by garry at 10.06.2012 10:11)
Поблагодарили: пока никто не поблагодарил...
Тип торрента: публичный - доступные источники с открытых трекеров: 
Размер: 2,18 GB (занимает 1/2 DVDR, для записи нужно 1 болванка DVDR/RW)
 
 

Яндекс.Метрика powered by Sphinx


В Н И М А Н И Е
Сайт не распространяет и не хранит электронные версии произведений, а лишь бесплатно и без коммерческой выгоды (не требуя взамен платы,
SMS и т.д.) предоставляет доступ к создаваемому пользователями каталогу ссылок на торрент-файлы, которые содержат только списки хеш-сумм.
Убедительная просьба с жалобами обращаться напрямую к пользователю, разместившему торрент файл.

Вверх