Loading...
Error

Шеф / Comme un chef (Дэниэл Коэн) [2012 г., комедия, DVDRip]

Статистика раздачи
Размер:  1,36 GB   |    Зарегистрирован:  4 года 5 месяцев   |    Скачан:  125 раз

Полного источника не было: 1 день 6 часов

Сидов:  0  |  0 KB/s  ]   Личеров:  0  |  0 KB/s  ]

* - сиды/пиры с внешних источников

   
 
Автор Сообщение

RG NewCinema 

09-Июн-2012 05:39

Шеф / Comme un chef


Год выпуска: 2012
Жанр: комедия
Страна: Франция , Испания
Режиссер: Дэниэл Коэн
В ролях: Жан Рено, Микаэль Юн, Рафаэль Агоге, Жюльен Буасселье, Салом Стевенен, Серж Ларивье, Исса Думбия, Бан Хэй Мин, Пьер Вернье, Сантьяго Сегура
Сюжет фильма:
Молодой начинающий повар пытается изменить жизненный устой и предпочтения уже известного звёздного шеф-повара, и это упрямство и упорство делает из молодого человека настоящего короля кухни!

  • Мировая премьера: 21 января 2012
  • Российская премьера: 10 мая 2012, Top Film Distribution

/
Качество видео: DVDRip

Продолжительность: 01:21:08

Формат: avi
Видео: XviD, 720x304, 2004 kbps
Аудио: русский, многоголосый закадровый [профессиональный], AC3 5.1, 384 kbps

Код:

General
Complete name                    : C:\Downloads\Shef.2012.P.DVDRip.avi
Format                           : AVI
Format/Info                      : Audio Video Interleave
File size                        : 1.36 GiB
Duration                         : 1h 21mn
Overall bit rate                 : 2 398 Kbps
Writing application              : VirtualDubMod 1.5.10.2 (build 2540/release)
Writing library                  : VirtualDubMod build 2540/release

Video
ID                               : 0
Format                           : MPEG-4 Visual
Format profile                   : Streaming Video@L1
Format settings, BVOP            : Yes
Format settings, QPel            : No
Format settings, GMC             : No warppoints
Format settings, Matrix          : Custom
Codec ID                         : XVID
Codec ID/Hint                    : XviD
Duration                         : 1h 21mn
Bit rate                         : 2 004 Kbps
Width                            : 720 pixels
Height                           : 304 pixels
Display aspect ratio             : 2.35
Frame rate                       : 25.000 fps
Resolution                       : 24 bits
Colorimetry                      : 4:2:0
Scan type                        : Progressive
Bits/(Pixel*Frame)               : 0.366
Stream size                      : 1.14 GiB (84%)
Writing library                  : XviD 1.2.1 (UTC 2008-12-04)

Audio
ID                               : 1
Format                           : AC-3
Format/Info                      : Audio Coding 3
Codec ID                         : 2000
Duration                         : 1h 21mn
Bit rate mode                    : Constant
Bit rate                         : 384 Kbps
Channel(s)                       : 6 channels
Channel positions                : Front: L C R, Surround: L R, LFE
Sampling rate                    : 48.0 KHz
Stream size                      : 223 MiB (16%)
Alignment                        : Split accross interleaves
Interleave, duration             : 40 ms (1.00 video frame)
Interleave, preload duration     : 500 ms

Семпл: http://multi-up.com/715657
picpicpic
Для увеличения картинки щелкните мышкой по превью

Этот торрент недоступен для скачивания без регистрации, однако доступен по публичной magnet-ссылке (источники с публичных трекеров). Перед использованием ссылки прочтите, пожалуйста Пользовательское соглашение, а также как можно дольше оставайтесь на раздаче! Для того, чтобы скачать сам торрент-файл (который видит больше источников), а также для того, чтобы поблагодарить релизера, вам необходимо зарегистрироваться. Если регистрироваться лень - вы можете также попробовать скачать релиз по нашим партнерским ссылкам ниже.

[underverse.su].t18205.torrent
Трекер: Зарегистрирован   [ 09.06.2012 05:39 ]  

Статус: проверено (by Паукан at 09.06.2012 06:29)
Поблагодарили: 2 человека
Тип торрента: публичный - доступные источники с открытых трекеров: 
Размер: 1,36 GB (занимает 0,31 DVDR, для записи нужно 1 болванка DVDR/RW)
 
 
Похожие темы
Форум Тема Автор Торрент Отв. Посл. сооб.
Зарубежное кино [DVDRip, Low-Res HDRip, и т.д.] Шеф / Comme un chef (Дэниэл Коэн) [2012 г., комедия, HDRip-AVC] MVO Бишеп
40 | 4

0 | 4355

17

14.06.2012 14:33

FotoFiz Пол:Муж

17-Июн-2012 06:52

Спасибо, с удовольствием посмотрим

Asket Пол:Муж

31-Июл-2012 15:55

Мне этот фильм очень понравился. Нравятся мне французские комедии, есть в них свой стиль, шарм, не то что у американских.

Gerix Пол:Муж

23-Сен-2012 14:29

Фильм отличный.
Хотите положительных эмоций - качайте, смотрите!

mongol 

30-Сен-2012 09:26

суперский фильм
актеры на высоте
советую

Яндекс.Метрика powered by Sphinx


В Н И М А Н И Е
Сайт не распространяет и не хранит электронные версии произведений, а лишь бесплатно и без коммерческой выгоды (не требуя взамен платы,
SMS и т.д.) предоставляет доступ к создаваемому пользователями каталогу ссылок на торрент-файлы, которые содержат только списки хеш-сумм.
Убедительная просьба с жалобами обращаться напрямую к пользователю, разместившему торрент файл.

Вверх