Loading...
Error

Том Сойер / Tom Sawyer (Хермини Хунтгебурх) [2011 г., приключения, семейный, HDRip]

Статистика раздачи
Размер:  1,46 GB   |    Зарегистрирован:  4 года 6 месяцев   |    Скачан:  23 раза

Полного источника не было: 10 часов

Сидов:  0  |  0 KB/s  ]   Личеров:  0  |  0 KB/s  ]

* - сиды/пиры с внешних источников

   
 
Автор Сообщение

RG NewCinema 

08-Июн-2012 16:11

Том Сойер / Tom Sawyer


Год выпуска: 2011
Жанр: приключения, семейный
Страна: Германия
Режиссер: Хермини Хунтгебурх
В ролях: Луис Хофманн, Леон Зайдель, Хайке Макатч, Бенно Фюрманн, Йоахим Круль, Питер Лохмайер, Хиннерк Шонеманн, Сильвестр Грот, Томас Шмаузер, Аднан Марал
Сюжет фильма:
Кто не знает веселых забияк Тома Сойера и Гекльберри Финна, живущих на берегу реки Миссисипи? Верным друзьям всегда есть чем заняться: будь то игры в пиратов, кража яблок или варенья из чулана, рыбалка, а также подшучивания над взрослыми. Безудержная фантазия приводит Тома и Гека ночью на кладбище, где они становятся свидетелями таинственного преступления, с которого и начинаются невероятные приключения.

  • Мировая премьера: 30 сентября 2011
  • Российская премьера: 10 мая 2012, Люксор

/
Качество видео: HDRip

Продолжительность: 01:50:47

Формат: avi
Видео: XviD, 720x304, 1429 kbps
Аудио: русский, дублированный [лицензия], AC3 5.1, 448 kbps

Код:

General
Complete name                    : C:\Downloads\Tom.Soyer.2011.HDRip.avi
Format                           : AVI
Format/Info                      : Audio Video Interleave
File size                        : 1.46 GiB
Duration                         : 1h 50mn
Overall bit rate                 : 1 887 Kbps
Writing application              : VirtualDubMod 1.5.10.3 (build 2550/release)
Writing library                  : VirtualDubMod build 2550/release

Video
ID                               : 0
Format                           : MPEG-4 Visual
Format profile                   : Streaming Video@L1
Format settings, BVOP            : Yes
Format settings, QPel            : No
Format settings, GMC             : No warppoints
Format settings, Matrix          : Custom
Codec ID                         : XVID
Codec ID/Hint                    : XviD
Duration                         : 1h 50mn
Bit rate                         : 1 430 Kbps
Width                            : 720 pixels
Height                           : 304 pixels
Display aspect ratio             : 2.35
Frame rate                       : 24.000 fps
Resolution                       : 24 bits
Colorimetry                      : 4:2:0
Scan type                        : Progressive
Bits/(Pixel*Frame)               : 0.272
Stream size                      : 1.11 GiB (76%)
Writing library                  : XviD 65

Audio
ID                               : 1
Format                           : AC-3
Format/Info                      : Audio Coding 3
Codec ID                         : 2000
Duration                         : 1h 50mn
Bit rate mode                    : Constant
Bit rate                         : 448 Kbps
Channel(s)                       : 6 channels
Channel positions                : Front: L C R, Surround: L R, LFE
Sampling rate                    : 48.0 KHz
Stream size                      : 355 MiB (24%)
Alignment                        : Split accross interleaves
Interleave, duration             : 42 ms (1.00 video frame)
Interleave, preload duration     : 500 ms

Семпл: http://multi-up.com/715435
picpicpic
Для увеличения картинки щелкните мышкой по превью

Этот торрент недоступен для скачивания без регистрации, однако доступен по публичной magnet-ссылке (источники с публичных трекеров). Перед использованием ссылки прочтите, пожалуйста Пользовательское соглашение, а также как можно дольше оставайтесь на раздаче! Для того, чтобы скачать сам торрент-файл (который видит больше источников), а также для того, чтобы поблагодарить релизера, вам необходимо зарегистрироваться. Если регистрироваться лень - вы можете также попробовать скачать релиз по нашим партнерским ссылкам ниже.

[underverse.su].t18203.torrent
Трекер: Зарегистрирован   [ 08.06.2012 16:11 ]  

Статус: проверено (by Паукан at 09.06.2012 04:35)
Поблагодарили: 2 человека
Тип торрента: публичный - доступные источники с открытых трекеров: 
Размер: 1,46 GB (занимает 0,33 DVDR, для записи нужно 1 болванка DVDR/RW)
 
 
Похожие темы
Форум Тема Автор Торрент Отв. Посл. сооб.
Зарубежное кино [DVDRip, Low-Res HDRip, и т.д.] Том Сойер / Tom Sawyer (Гермина Хунтгебурт) [2011 г., приключения, семейный, BDRip] Dub + Original 90ytr90
0 | 0

0 | 1001

18

09.09.2013 13:37


Яндекс.Метрика powered by Sphinx


В Н И М А Н И Е
Сайт не распространяет и не хранит электронные версии произведений, а лишь бесплатно и без коммерческой выгоды (не требуя взамен платы,
SMS и т.д.) предоставляет доступ к создаваемому пользователями каталогу ссылок на торрент-файлы, которые содержат только списки хеш-сумм.
Убедительная просьба с жалобами обращаться напрямую к пользователю, разместившему торрент файл.

Вверх