Loading...
Error

Дитя человеческое / Children of Men (Альфонсо Куарон) [2006 г., фантастика, триллер, драма, приключения, BDRip]

Статистика раздачи
Размер:  2,19 GB   |    Зарегистрирован:  4 года 6 месяцев   |    Скачан:  15 раз

Полного источника не было: 3 месяца 19 дней

Сидов:  0  |  0 KB/s  ]   Личеров:  0  |  0 KB/s  ]

* - сиды/пиры с внешних источников

   
 
Автор Сообщение

garry Пол:Муж

08-Июн-2012 04:49

Дитя человеческое / Children of Men


Год выпуска: 2006
Жанр: фантастика, триллер, драма, приключения
Страна: США
Режиссер: Альфонсо Куарон
В ролях: Клайв Оуэн, Джулианна Мур, Майкл Кейн, Клэр-Хоуп Эшити, Чарли Ханнэм, Чивител Эджофор, Хуан Гэбриел Якуцци, Мишель Хуссэйн, Роб Карлинг, Джон Шевалье
Сюжет фильма:
2027 год. Мир погряз в анархии, причиной которой стало массовое бесплодие. Над человечеством нависла угроза полного вымирания. Лишенный иллюзий бюрократ превращается в чемпиона гонки на выживание в Лондоне, раздираемом клановыми войнами противоборствующих группировок. Именно он встает на защиту последней надежды человечества беременной женщины, которую надо доставить в безопасное место под присмотр врачей

  • Мировая премьера: 3 сентября 2006
  • Российская премьера: 19 октября 2006, UIP


Качество видео: BDRip

Продолжительность: 01:49:19

Формат: AVI
Видео: XviD, 720x384, 1961 kbps
Аудио #1: русский, дублированный (лицензия), AC3 5.1, 448 kbps
Аудио #2: английский, оригинал, AC3 5.1, 448 kbps

Код:

General
Complete name                    : D:\Program Files\Distrib\Ditya.Chelovecheskoe.2006.DUAL.BDRip.XviD.AC3.-HQCLUB.avi
Format                           : AVI
Format/Info                      : Audio Video Interleave
Format profile                   : OpenDML
File size                        : 2.19 GiB
Duration                         : 1h 49mn
Overall bit rate                 : 2 864 Kbps
Writing application              : VirtualDubMod 1.5.10.2 (build 2542/release)
Writing library                  : VirtualDubMod build 2542/release

Video
ID                               : 0
Format                           : MPEG-4 Visual
Format profile                   : Advanced Simple@L5
Format settings, BVOP            : 1
Format settings, QPel            : No
Format settings, GMC             : No warppoints
Format settings, Matrix          : Default (MPEG)
Codec ID                         : XVID
Codec ID/Hint                    : XviD
Duration                         : 1h 49mn
Bit rate                         : 1 951 Kbps
Width                            : 720 pixels
Height                           : 384 pixels
Display aspect ratio             : 1.875
Frame rate                       : 23.976 fps
Color space                      : YUV
Chroma subsampling               : 4:2:0
Bit depth                        : 8 bits
Scan type                        : Progressive
Compression mode                 : Lossy
Bits/(Pixel*Frame)               : 0.294
Stream size                      : 1.49 GiB (68%)
Writing library                  : XviD 1.2.1 (UTC 2008-12-04)

Audio #1
ID                               : 1
Format                           : AC-3
Format/Info                      : Audio Coding 3
Mode extension                   : CM (complete main)
Codec ID                         : 2000
Duration                         : 1h 49mn
Bit rate mode                    : Constant
Bit rate                         : 448 Kbps
Channel(s)                       : 6 channels
Channel positions                : Front: L C R, Side: L R, LFE
Sampling rate                    : 48.0 KHz
Bit depth                        : 16 bits
Compression mode                 : Lossy
Stream size                      : 350 MiB (16%)
Alignment                        : Split accross interleaves
Interleave, duration             : 42 ms (1.00 video frame)
Interleave, preload duration     : 500 ms

Audio #2
ID                               : 2
Format                           : AC-3
Format/Info                      : Audio Coding 3
Mode extension                   : CM (complete main)
Codec ID                         : 2000
Duration                         : 1h 49mn
Bit rate mode                    : Constant
Bit rate                         : 448 Kbps
Channel(s)                       : 6 channels
Channel positions                : Front: L C R, Side: L R, LFE
Sampling rate                    : 48.0 KHz
Bit depth                        : 16 bits
Compression mode                 : Lossy
Stream size                      : 350 MiB (16%)
Alignment                        : Split accross interleaves
Interleave, duration             : 42 ms (1.00 video frame)
Interleave, preload duration     : 500 ms
Семпл: http://multi-up.com/715347

Релиз группы:
picpicpic
Для увеличения картинки щелкните мышкой по превью

Этот торрент недоступен для скачивания без регистрации, однако доступен по публичной magnet-ссылке (источники с публичных трекеров). Перед использованием ссылки прочтите, пожалуйста Пользовательское соглашение, а также как можно дольше оставайтесь на раздаче! Для того, чтобы скачать сам торрент-файл (который видит больше источников), а также для того, чтобы поблагодарить релизера, вам необходимо зарегистрироваться. Если регистрироваться лень - вы можете также попробовать скачать релиз по нашим партнерским ссылкам ниже.

[underverse.su].t18197.torrent
Трекер: Зарегистрирован   [ 08.06.2012 04:49 ]  

Статус: проверено (by garry at 08.06.2012 04:50)
Поблагодарили: 1 человек
Тип торрента: публичный - доступные источники с открытых трекеров: 
Размер: 2,19 GB (занимает 1/2 DVDR, для записи нужно 1 болванка DVDR/RW)
 
 

maga.islamov Пол:Муж

10-Июн-2012 13:52

kto smotrel film,ozenite

garry Пол:Муж

11-Июн-2012 10:14

maga.islamov
классный фильм

Яндекс.Метрика powered by Sphinx


В Н И М А Н И Е
Сайт не распространяет и не хранит электронные версии произведений, а лишь бесплатно и без коммерческой выгоды (не требуя взамен платы,
SMS и т.д.) предоставляет доступ к создаваемому пользователями каталогу ссылок на торрент-файлы, которые содержат только списки хеш-сумм.
Убедительная просьба с жалобами обращаться напрямую к пользователю, разместившему торрент файл.

Вверх