Loading...
Error

Путеводитель по любви / Sunny Side Up (Дэвид Помес, Дерек Эстлин Пёрвис) [2011 г., комедия, DVDRip]

Статистика раздачи
Размер:  1,46 GB   |    Зарегистрирован:  4 года 5 месяцев   |    Скачан:  16 раз

Полного источника не было: 11 месяцев

Сидов:  0  |  0 KB/s  ]   Личеров:  0  |  0 KB/s  ]

* - сиды/пиры с внешних источников

   
 
Автор Сообщение

RG NewCinema 

07-Июн-2012 18:16

Путеводитель по любви / Sunny Side Up


Год выпуска: 2011
Жанр: комедия
Страна: США
Режиссер: Дэвид Помес, Дерек Эстлин Пёрвис
В ролях: Паркер Поузи, Кэтрин Эрбе, Джей Харингтон, Dechen Thurman, Андрия Блэкмэн, Майкл Пэйнс, Кристи Скотт Кэшман, Джеффри Кинкэннон, Stacey Lucchino, Бен Хэнсон
Сюжет фильма:
В борьбе за свою птицеферму и семью главная героиня соглашается на отчаянный шаг стать участницей реалити-шоу вместе со знаменитым экспертом из Голливуда. Постепенно втянувшись, она безвозвратно меняется и открывает для себя истинный смысл успеха.

  • Мировая премьера: 15 октября 2011

/
Качество видео: DVDRip

Продолжительность: 01:17:54

Формат: avi
Видео: XviD, 720x400, 1900 kbps
Аудио #1: русский, многоголосый закадровый [профессиональный], AC3 5.1, 384 kbps
Аудио #2: английский, оригинал, AC3 5.1, 384 kbps

Код:

General
Complete name                    : C:\Downloads\Putevoditel.po.ljubvi.2011.P.DVDRip..avi
Format                           : AVI
Format/Info                      : Audio Video Interleave
File size                        : 1.46 GiB
Duration                         : 1h 17mn
Overall bit rate                 : 2 683 Kbps
Movie name                       : Putevoditel.po.ljubvi.2011.P.DVDRip
Genre                            : Comedy
Writing application              : VirtualDubMod 1.5.10.2 (build 2540/release)
Original source form/Name        : Movie

Video
ID                               : 0
Format                           : MPEG-4 Visual
Format profile                   : Streaming Video@L1
Format settings, BVOP            : Yes
Format settings, QPel            : No
Format settings, GMC             : No warppoints
Format settings, Matrix          : Custom
Codec ID                         : XVID
Codec ID/Hint                    : XviD
Duration                         : 1h 17mn
Bit rate                         : 1 901 Kbps
Width                            : 720 pixels
Height                           : 400 pixels
Display aspect ratio             : 16/9
Frame rate                       : 25.000 fps
Resolution                       : 24 bits
Colorimetry                      : 4:2:0
Scan type                        : Progressive
Bits/(Pixel*Frame)               : 0.264
Stream size                      : 1.03 GiB (71%)
Writing library                  : XviD 1.2.1 (UTC 2008-12-04)

Audio #1
ID                               : 1
Format                           : AC-3
Format/Info                      : Audio Coding 3
Codec ID                         : 2000
Duration                         : 1h 17mn
Bit rate mode                    : Constant
Bit rate                         : 384 Kbps
Channel(s)                       : 6 channels
Channel positions                : Front: L C R, Surround: L R, LFE
Sampling rate                    : 48.0 KHz
Stream size                      : 214 MiB (14%)
Alignment                        : Split accross interleaves
Interleave, duration             : 40 ms (1.00 video frame)
Interleave, preload duration     : 500 ms

Audio #2
ID                               : 2
Format                           : AC-3
Format/Info                      : Audio Coding 3
Codec ID                         : 2000
Duration                         : 1h 17mn
Bit rate mode                    : Constant
Bit rate                         : 384 Kbps
Channel(s)                       : 6 channels
Channel positions                : Front: L C R, Surround: L R, LFE
Sampling rate                    : 48.0 KHz
Stream size                      : 214 MiB (14%)
Alignment                        : Split accross interleaves
Interleave, duration             : 40 ms (1.00 video frame)
Interleave, preload duration     : 500 ms

Семпл: http://multi-up.com/715132
picpicpic
Для увеличения картинки щелкните мышкой по превью

Этот торрент недоступен для скачивания без регистрации, однако доступен по публичной magnet-ссылке (источники с публичных трекеров). Перед использованием ссылки прочтите, пожалуйста Пользовательское соглашение, а также как можно дольше оставайтесь на раздаче! Для того, чтобы скачать сам торрент-файл (который видит больше источников), а также для того, чтобы поблагодарить релизера, вам необходимо зарегистрироваться. Если регистрироваться лень - вы можете также попробовать скачать релиз по нашим партнерским ссылкам ниже.

[underverse.su].t18194.torrent
Трекер: Зарегистрирован   [ 07.06.2012 18:16 ]  

Статус: проверено (by Паукан at 07.06.2012 18:24)
Поблагодарили: 1 человек
Тип торрента: публичный - доступные источники с открытых трекеров: 
Размер: 1,46 GB (занимает 0,33 DVDR, для записи нужно 1 болванка DVDR/RW)
 
 
Похожие темы
Форум Тема Автор Торрент Отв. Посл. сооб.
Зарубежное кино HQ Путеводитель: Автостопом по галактике / The Hitchhiker`s Guide to the Galaxy (Гарт Дженнингс) [2005 г., фантастика, комедия, приключения, BDRip] Паукан
0 | 0

1 | 1242

6

08.06.2009 03:26

Научно-популярные фильмы Путеводитель по пришельцам. Готовы ли мы к контакту / Aliens. The Definitive Guide. How to Prepare [2013 г., научно-популярный, космос, HDTVRip 720p] VO + Original Чертёнок
1 | 0

1 | 1317

40

19.07.2013 17:12


Яндекс.Метрика powered by Sphinx


В Н И М А Н И Е
Сайт не распространяет и не хранит электронные версии произведений, а лишь бесплатно и без коммерческой выгоды (не требуя взамен платы,
SMS и т.д.) предоставляет доступ к создаваемому пользователями каталогу ссылок на торрент-файлы, которые содержат только списки хеш-сумм.
Убедительная просьба с жалобами обращаться напрямую к пользователю, разместившему торрент файл.

Вверх