Loading...
Error

Девушка папы / Legacy (Стивен Сэвадж) [2010 г., триллер, DVDRip]

Статистика раздачи
Размер:  1,46 GB   |    Зарегистрирован:  4 года 6 месяцев   |    Скачан:  11 раз

Полного источника не было: 4 года 1 месяц

Сидов:  0  |  0 KB/s  ]   Личеров:  0  |  0 KB/s  ]

* - сиды/пиры с внешних источников

   
 
Автор Сообщение

RG NewCinema 

07-Июн-2012 17:27

Девушка папы / Legacy


Год выпуска: 2010
Жанр: триллер
Страна: США
Режиссер: Стивен Сэвадж
В ролях: Вольфганг Бодисон, Уилл Уоллес, Kyrie Maezumi, Карсон Он, Конор О’Фэррелл, Оскар Торрес, Кэззи Голомб, Кристофер Пеннок, Франческа Браун, Алиса Шульц
Сюжет фильма:
Ари Ларсен возвращается после пятилетнего отсутствия с жуткими воспоминаниями из детства. Похищенная в одиннадцатилетнем возрасте ее родным отцом, серийным убийцей, профессором Дэвидом Ларсоном, прошедшая муки ада и оставленная одна в пустыне, она чудом выживает, но юное создание боится только одного: ее отец до сих пор не пойман полицией. Книга Ари, Девушка папы, стала бестселлером в США.

Теперь красивая молодая женщина, но все еще терзаемая воспоминаниями, возвращается и хочет начать новую жизнь. Но пресса не оставляет ее, после сенсационного интервью на одном центральном канале, в городе начинается серия убийств молодых девушек. Почерк убийцы в точности копирует почерк ее отца. Кто орудует в городе, психопат-подражатель, ее отец, или все это плод ее воспаленного сознания?
|
Качество видео: DVDRip

Продолжительность: 01:55:29

Формат: avi
Видео: XviD, 720x352, 1604 kbps
Аудио: русский, многоголосый закадровый [профессиональный], AC3 2.0, 192 kbps

Код:

General
Complete name                    : C:\Downloads\Devushka.papy.2010.P.DVDRip.avi
Format                           : AVI
Format/Info                      : Audio Video Interleave
File size                        : 1.46 GiB
Duration                         : 1h 55mn
Overall bit rate                 : 1 806 Kbps
Movie name                       : Devushka.papy.2010.P.DVDRip.
Genre                            : Drama / Crime
Writing application              : VirtualDubMod 1.5.10.2 (build 2540/release)
Original source form/Name        : Movie

Video
ID                               : 0
Format                           : MPEG-4 Visual
Format profile                   : Streaming Video@L1
Format settings, BVOP            : Yes
Format settings, QPel            : No
Format settings, GMC             : No warppoints
Format settings, Matrix          : Custom
Codec ID                         : XVID
Codec ID/Hint                    : XviD
Duration                         : 1h 55mn
Bit rate                         : 1 605 Kbps
Width                            : 720 pixels
Height                           : 352 pixels
Display aspect ratio             : 2.045
Frame rate                       : 25.000 fps
Resolution                       : 24 bits
Colorimetry                      : 4:2:0
Scan type                        : Progressive
Bits/(Pixel*Frame)               : 0.253
Stream size                      : 1.29 GiB (89%)
Writing library                  : XviD 1.2.1 (UTC 2008-12-04)

Audio
ID                               : 1
Format                           : AC-3
Format/Info                      : Audio Coding 3
Codec ID                         : 2000
Duration                         : 1h 55mn
Bit rate mode                    : Constant
Bit rate                         : 192 Kbps
Channel(s)                       : 2 channels
Channel positions                : L R
Sampling rate                    : 48.0 KHz
Stream size                      : 159 MiB (11%)
Alignment                        : Split accross interleaves
Interleave, duration             : 40 ms (1.00 video frame)
Interleave, preload duration     : 500 ms

Семпл: http://multi-up.com/715102
picpicpic
Для увеличения картинки щелкните мышкой по превью

Этот торрент недоступен для скачивания без регистрации, однако доступен по публичной magnet-ссылке (источники с публичных трекеров). Перед использованием ссылки прочтите, пожалуйста Пользовательское соглашение, а также как можно дольше оставайтесь на раздаче! Для того, чтобы скачать сам торрент-файл (который видит больше источников), а также для того, чтобы поблагодарить релизера, вам необходимо зарегистрироваться. Если регистрироваться лень - вы можете также попробовать скачать релиз по нашим партнерским ссылкам ниже.

[underverse.su].t18193.torrent
Трекер: Зарегистрирован   [ 07.06.2012 17:27 ]  

Статус: проверено (by Паукан at 07.06.2012 18:17)
Поблагодарили: пока никто не поблагодарил...
Тип торрента: публичный - доступные источники с открытых трекеров: 
Размер: 1,46 GB (занимает 1/3 DVDR, для записи нужно 1 болванка DVDR/RW)
 
 

Яндекс.Метрика powered by Sphinx


В Н И М А Н И Е
Сайт не распространяет и не хранит электронные версии произведений, а лишь бесплатно и без коммерческой выгоды (не требуя взамен платы,
SMS и т.д.) предоставляет доступ к создаваемому пользователями каталогу ссылок на торрент-файлы, которые содержат только списки хеш-сумм.
Убедительная просьба с жалобами обращаться напрямую к пользователю, разместившему торрент файл.

Вверх