Loading...
Error

Атлант расправил плечи / Atlas Shrugged: Part I (Пол Йоханссон) [2011 г., фантастика, драма, детектив, HDRip]

Статистика раздачи
Размер:  1,46 GB   |    Зарегистрирован:  4 года 6 месяцев   |    Скачан:  29 раз

Полного источника не было: 8 часов

Сидов:  0  |  0 KB/s  ]   Личеров:  0  |  0 KB/s  ]

* - сиды/пиры с внешних источников

   
 
Автор Сообщение

RG NewCinema 

07-Июн-2012 14:56

Атлант расправил плечи / Atlas Shrugged: Part I


Год выпуска: 2011
Жанр: фантастика, драма, детектив
Страна: США
Режиссер: Пол Йоханссон
В ролях: Тейлор Шиллинг, Грант Боулер, Эди Гатеги, Патрик Фишлер, Пол Йоханссон, Армин Шимерман, Майкл О’Киф, Мэттью Мэрсден, Джеффри Пирсон, Майкл Лернер
Сюжет фильма:
"Атлант расправил плечи" рассказывает о приходе социалистов к власти во всем мире. Начинаются гонения на крупный бизнес, свободный рынок уступает позиции плановой экономике, Америка постепенно погружается в хаос и тьму. Главные герои владелица железнодорожной компании Дэгни Таггерт и глава металлургических заводов Хэнк Реардэн пытаются противостоять новым устоям.

  • Мировая премьера: 15 апреля 2011

/
Качество видео: HDRip

Продолжительность: 01:36:52

Формат: avi
Видео: XviD, 720x304, 1760 kbps
Аудио: русский, многоголосый закадровый [профессиональный], AC3 5.1, 384 kbps

Код:

General
Complete name                    : C:\Downloads\Atlas Shrugged Part I.2011.P.HDRip.avi
Format                           : AVI
Format/Info                      : Audio Video Interleave
File size                        : 1.46 GiB
Duration                         : 1h 36mn
Overall bit rate                 : 2 154 Kbps
Movie name                       : Atlant.raspravil.plechi.2011.P.HDRip.IRONCLUB
Director                         : IRONCLUB
Genre                            : Drama | Mystery | Sci-Fi
Writing application              : VirtualDubMod 1.5.10.2 (build 2540/release)
Original source form/Name        : Movie
Copyright                        : http://ironclub.tv/

Video
ID                               : 0
Format                           : MPEG-4 Visual
Format profile                   : Streaming Video@L1
Format settings, BVOP            : Yes
Format settings, QPel            : No
Format settings, GMC             : No warppoints
Format settings, Matrix          : Custom
Codec ID                         : XVID
Codec ID/Hint                    : XviD
Duration                         : 1h 36mn
Bit rate                         : 1 760 Kbps
Width                            : 720 pixels
Height                           : 304 pixels
Display aspect ratio             : 2.35
Frame rate                       : 23.976 fps
Resolution                       : 24 bits
Colorimetry                      : 4:2:0
Scan type                        : Progressive
Bits/(Pixel*Frame)               : 0.335
Stream size                      : 1.19 GiB (82%)
Writing library                  : XviD 1.2.1 (UTC 2008-12-04)

Audio
ID                               : 1
Format                           : AC-3
Format/Info                      : Audio Coding 3
Codec ID                         : 2000
Duration                         : 1h 36mn
Bit rate mode                    : Constant
Bit rate                         : 384 Kbps
Channel(s)                       : 6 channels
Channel positions                : Front: L C R, Surround: L R, LFE
Sampling rate                    : 48.0 KHz
Stream size                      : 266 MiB (18%)
Alignment                        : Split accross interleaves
Interleave, duration             : 42 ms (1.00 video frame)
Interleave, preload duration     : 500 ms

Семпл: http://sendfile.su/609343
picpicpic
Для увеличения картинки щелкните мышкой по превью

Этот торрент недоступен для скачивания без регистрации, однако доступен по публичной magnet-ссылке (источники с публичных трекеров). Перед использованием ссылки прочтите, пожалуйста Пользовательское соглашение, а также как можно дольше оставайтесь на раздаче! Для того, чтобы скачать сам торрент-файл (который видит больше источников), а также для того, чтобы поблагодарить релизера, вам необходимо зарегистрироваться. Если регистрироваться лень - вы можете также попробовать скачать релиз по нашим партнерским ссылкам ниже.

[underverse.su].t18192.torrent
Трекер: Зарегистрирован   [ 07.06.2012 14:56 ]  

Статус: проверено (by Паукан at 07.06.2012 15:06)
Поблагодарили: 2 человека
Тип торрента: публичный - доступные источники с открытых трекеров: 
Размер: 1,46 GB (занимает 1/3 DVDR, для записи нужно 1 болванка DVDR/RW)
 
 
Похожие темы
Форум Тема Автор Торрент Отв. Посл. сооб.
Зарубежное кино [DVDRip, Low-Res HDRip, и т.д.] Атлант расправил плечи: Часть 2 / Atlas Shrugged II: The Strike (Джон Путч) [2012 г., фантастика, драма, детектив, HDRip] VO 90ytr90
9 | 0

0 | 1399

76

28.02.2013 14:50

Зарубежное кино [DVDRip, Low-Res HDRip, и т.д.] Атлант расправил плечи: Часть 3 / Atlas Shrugged: Part III (Джеймс Манера) [2014 г., фантастика, драма, детектив, HDRip] DVO + Subs makkol
2 | 0

0 | 728

29

12.08.2015 15:09

Зарубежное кино [HDDVDRip / BDRip / WEB-DL / HDTV 1080/720р] Атлант расправил плечи / Atlas Shrugged: Part I (Пол Йоханссон) [2011 г., Фантастика, драма, детектив, BDRip 720p] MVO + Original Чертёнок
2 | 1

1 | 3987

40

02.03.2013 19:22

Зарубежное кино [HDDVDRip / BDRip / WEB-DL / HDTV 1080/720р] Атлант расправил плечи: Часть 3 / Atlas Shrugged: Part III (Джеймс Манера) [2014 г., фантастика, драма, детектив, BDRip 720p] DVO + Original + Subs makkol
0 | 0

0 | 617

16

11.08.2015 15:06


Яндекс.Метрика powered by Sphinx


В Н И М А Н И Е
Сайт не распространяет и не хранит электронные версии произведений, а лишь бесплатно и без коммерческой выгоды (не требуя взамен платы,
SMS и т.д.) предоставляет доступ к создаваемому пользователями каталогу ссылок на торрент-файлы, которые содержат только списки хеш-сумм.
Убедительная просьба с жалобами обращаться напрямую к пользователю, разместившему торрент файл.

Вверх