Loading...
Error

Отставник 3 (Игорь Москвитин) [2011 г., боевик, криминал, DVDRip]

Статистика раздачи
Размер:  1,37 GB   |    Зарегистрирован:  4 года 5 месяцев   |    Скачан:  6 раз

Полного источника не было: 4 года 3 месяца

Сидов:  0  |  0 KB/s  ]   Личеров:  0  |  0 KB/s  ]

* - сиды/пиры с внешних источников

   
 
Автор Сообщение

RG NewCinema 

07-Июн-2012 03:52

Отставник 3


Год выпуска: 2011
Жанр: боевик, криминал
Страна: Россия
Режиссер: Игорь Москвитин
В ролях: Борис Галкин, Валерий Доронин, Александр Рязанцев, Юлия Рудина, Елена Радевич
Сюжет фильма:
Однажды, пройдя медобследование, Дед получил путевку в пансионат, но решил отдать ее тому, кому она нужнее, — своему другу-инвалиду Каверину. Тот, приехав в санаторий, стал свидетелем, как двое крепких парней силой затаскивают в машину молодую девушку. Каверин попытался вступиться за бедняжку, но его избили и бросили прямо на дороге. Случайные прохожие доставили его в больницу, а врачи, увидев военный жетон, запросили данные в Москве. Так о происшествии стало известно Дедову, который тотчас отправился искать бандитов, чтобы отомстить за друга.

  • Мировая премьера: 23 декабря 2011
  • Российская премьера: 23 декабря 2011

Качество видео: DVDRip

Продолжительность: 01:31:16

Формат: avi
Видео: XviD, 720x400, 1688 kbps
Аудио: русский, оригинал, AC3 5.1, 448 kbps

Код:

General
Complete name                    : C:\Downloads\Otstavnik.3.2011.XviD.DVDRip.avi
Format                           : AVI
Format/Info                      : Audio Video Interleave
File size                        : 1.37 GiB
Duration                         : 1h 31mn
Overall bit rate                 : 2 147 Kbps
Writing application              : VirtualDubMod 1.5.10.3 | www.virtualdub-fr.org || (build 2550/release)
Writing library                  : VirtualDubMod build 2550/release

Video
ID                               : 0
Format                           : MPEG-4 Visual
Format profile                   : Streaming Video@L1
Format settings, BVOP            : Yes
Format settings, QPel            : No
Format settings, GMC             : No warppoints
Format settings, Matrix          : Default (MPEG)
Codec ID                         : XVID
Codec ID/Hint                    : XviD
Duration                         : 1h 31mn
Bit rate                         : 1 689 Kbps
Width                            : 720 pixels
Height                           : 400 pixels
Display aspect ratio             : 16/9
Frame rate                       : 25.000 fps
Resolution                       : 24 bits
Colorimetry                      : 4:2:0
Scan type                        : Progressive
Bits/(Pixel*Frame)               : 0.235
Stream size                      : 1.08 GiB (79%)
Writing library                  : XviD 1.2.1 (UTC 2008-12-04)

Audio
ID                               : 1
Format                           : AC-3
Format/Info                      : Audio Coding 3
Codec ID                         : 2000
Duration                         : 1h 31mn
Bit rate mode                    : Constant
Bit rate                         : 448 Kbps
Channel(s)                       : 6 channels
Channel positions                : Front: L C R, Surround: L R, LFE
Sampling rate                    : 48.0 KHz
Stream size                      : 292 MiB (21%)
Alignment                        : Split accross interleaves
Interleave, duration             : 40 ms (1.00 video frame)
Interleave, preload duration     : 500 ms

Семпл: http://multi-up.com/714510
picpicpic
Для увеличения картинки щелкните мышкой по превью

Этот торрент недоступен для скачивания без регистрации, однако доступен по публичной magnet-ссылке (источники с публичных трекеров). Перед использованием ссылки прочтите, пожалуйста Пользовательское соглашение, а также как можно дольше оставайтесь на раздаче! Для того, чтобы скачать сам торрент-файл (который видит больше источников), а также для того, чтобы поблагодарить релизера, вам необходимо зарегистрироваться. Если регистрироваться лень - вы можете также попробовать скачать релиз по нашим партнерским ссылкам ниже.

[underverse.su].t18183.torrent
Трекер: Зарегистрирован   [ 07.06.2012 03:52 ]  

Статус: проверено (by garry at 07.06.2012 04:11)
Поблагодарили: пока никто не поблагодарил...
Тип торрента: публичный - доступные источники с открытых трекеров: 
Размер: 1,37 GB (занимает 0,31 DVDR, для записи нужно 1 болванка DVDR/RW)
 
 
Похожие темы
Форум Тема Автор Торрент Отв. Посл. сооб.
Наше кино [DVD / HDDVD / BD / Remux] Отставник 2: Своих не бросаем (Андрей Щербинин) [2010 г., боевик, DVD-5] Чертёнок
0 | 1

0 | 1067

6

10.03.2013 10:18


Яндекс.Метрика powered by Sphinx


В Н И М А Н И Е
Сайт не распространяет и не хранит электронные версии произведений, а лишь бесплатно и без коммерческой выгоды (не требуя взамен платы,
SMS и т.д.) предоставляет доступ к создаваемому пользователями каталогу ссылок на торрент-файлы, которые содержат только списки хеш-сумм.
Убедительная просьба с жалобами обращаться напрямую к пользователю, разместившему торрент файл.

Вверх