Loading...
Error

Все копы - ублюдки / A.C.A.B.: All Cops Are Bastards (Стефано Соллима) [2012 г., боевик, драма, криминал, HDRip] [Xixidok]

Статистика раздачи
Размер:  1,46 GB   |    Зарегистрирован:  4 года 5 месяцев   |    Скачан:  25 раз

Полного источника не было: 1 год 8 месяцев

Сидов:  0  |  0 KB/s  ]   Личеров:  0  |  0 KB/s  ]

* - сиды/пиры с внешних источников

   
 
Автор Сообщение

RG NewCinema 

07-Июн-2012 03:45

Все копы - ублюдки / A.C.A.B.: All Cops Are Bastards


Год выпуска: 2012
Жанр: боевик, драма, криминал
Страна: Франция
Режиссер: Стефано Соллима
В ролях: Пьерфранческо Фавино, Филиппо Нигро, Марко Джаллини, Роберта Спаньюоло, Ник Николози
Сюжет фильма:
Адриано молодой новобранец полицейского подразделения по борьбе с массовыми беспорядками в Риме. Его напарниками и учителями станут трое опытных полицейских Негро, Мазинга и Кобра, известные своей жестокостью и нетерпимостью по отношению к нарушителям закона. Вскоре Адриано начинает понимать, что в их привычном методе работы что-то не так.

  • Мировая премьера: 27 января 2012

|
Качество видео: HDRip

Продолжительность: 01:49:37

Формат: avi
Видео: XviD, 720x304, 1516 kbps
Аудио: русский, одноголосый закадровый [любительский, Хихикающий доктор], AC3 5.1, 384 kbps

Код:

General
Complete name                    : C:\Downloads\A.C.A.B.2012.L1.HDRip.i.avi
Format                           : AVI
Format/Info                      : Audio Video Interleave
File size                        : 1.46 GiB
Duration                         : 1h 49mn
Overall bit rate                 : 1 909 Kbps
Writing application              : VirtualDubMod 1.5.10.2 (build 2540/release)
Writing library                  : VirtualDubMod build 2540/release

Video
ID                               : 0
Format                           : MPEG-4 Visual
Format profile                   : Streaming Video@L1
Format settings, BVOP            : Yes
Format settings, QPel            : No
Format settings, GMC             : No warppoints
Format settings, Matrix          : Default (MPEG)
Codec ID                         : XVID
Codec ID/Hint                    : XviD
Duration                         : 1h 49mn
Bit rate                         : 1 516 Kbps
Width                            : 720 pixels
Height                           : 304 pixels
Display aspect ratio             : 2.35
Frame rate                       : 24.000 fps
Resolution                       : 24 bits
Colorimetry                      : 4:2:0
Scan type                        : Progressive
Bits/(Pixel*Frame)               : 0.289
Stream size                      : 1.16 GiB (79%)
Writing library                  : XviD 1.2.1 (UTC 2008-12-04)

Audio
ID                               : 1
Format                           : AC-3
Format/Info                      : Audio Coding 3
Codec ID                         : 2000
Duration                         : 1h 49mn
Bit rate mode                    : Constant
Bit rate                         : 384 Kbps
Channel(s)                       : 6 channels
Channel positions                : Front: L C R, Surround: L R, LFE
Sampling rate                    : 48.0 KHz
Stream size                      : 301 MiB (20%)
Alignment                        : Split accross interleaves
Interleave, duration             : 42 ms (1.00 video frame)
Interleave, preload duration     : 500 ms

Семпл: http://multi-up.com/714730
picpicpic
Для увеличения картинки щелкните мышкой по превью

Этот торрент недоступен для скачивания без регистрации, однако доступен по публичной magnet-ссылке (источники с публичных трекеров). Перед использованием ссылки прочтите, пожалуйста Пользовательское соглашение, а также как можно дольше оставайтесь на раздаче! Для того, чтобы скачать сам торрент-файл (который видит больше источников), а также для того, чтобы поблагодарить релизера, вам необходимо зарегистрироваться. Если регистрироваться лень - вы можете также попробовать скачать релиз по нашим партнерским ссылкам ниже.

[underverse.su].t18182.torrent
Трекер: Зарегистрирован   [ 07.06.2012 03:45 ]  

Статус: проверено (by garry at 07.06.2012 04:10)
Поблагодарили: пока никто не поблагодарил...
Тип торрента: публичный - доступные источники с открытых трекеров: 
Размер: 1,46 GB (занимает 0,33 DVDR, для записи нужно 1 болванка DVDR/RW)
 
 
Похожие темы
Форум Тема Автор Торрент Отв. Посл. сооб.
Зарубежное кино [DVDRip, Low-Res HDRip, и т.д.] Все копы - ублюдки / A.C.A.B.: All Cops Are Bastards (Стефано Соллима) [2012 г., боевик, драма, криминал, HDRip] DVO + Original Чертёнок
4 | 0

0 | 1083

27

22.09.2013 10:10


Яндекс.Метрика powered by Sphinx


В Н И М А Н И Е
Сайт не распространяет и не хранит электронные версии произведений, а лишь бесплатно и без коммерческой выгоды (не требуя взамен платы,
SMS и т.д.) предоставляет доступ к создаваемому пользователями каталогу ссылок на торрент-файлы, которые содержат только списки хеш-сумм.
Убедительная просьба с жалобами обращаться напрямую к пользователю, разместившему торрент файл.

Вверх