Loading...
Error

Свадебный разгром / A Few Best Men (Стефан Эллиотт) [2011 г., комедия, HDRip] (Rus, Eng) HQ Underverse

Статистика раздачи
Размер:  2,17 GB   |    Зарегистрирован:  4 года 5 месяцев   |    Скачан:  18 раз

Полного источника не было: 1 день 10 часов

Сидов:  0  |  0 KB/s  ]   Личеров:  0  |  0 KB/s  ]

* - сиды/пиры с внешних источников

   
 
Автор Сообщение

HQ Underverse 

06-Июн-2012 16:57

Свадебный разгром / A Few Best Men


Год выпуска: 2011
Жанр: комедия
Страна: США
Режиссер: Стефан Эллиотт
В ролях: Завьер Сэмюэл, Крис Маршалл, Кевин Бишоп, Тим Драксл, Лаура Брент, Ребел Уилсон, Оливия Ньютон-Джон, Джонатан Биггинс, Стив Ле Маркванд
Сюжет фильма:
Как празднуют свадьбу в Австралии? Да круче, чем новый год в России. Шикарная церемония, море алкоголя и тройка верных друзей, решивших оторваться на полную катушку. Сможет ли настоящая любовь пережить эти испытания?

  • Мировая премьера: 14 октября 2011
  • Российская премьера: 3 мая 2012, Наше Кино, Премиум Фильм

/
Качество видео: HDRip

Продолжительность: 01:36:35

Формат: avi
Видео: XviD, 720x304, 2302 kbps
Аудио #1: русский, дублированный [лицензия], AC3 5.1, 448 kbps
Аудио #2: английский, оригинал, AC3 5.1, 448 kbps
Субтитры: внешние, SRT, русский (на narod.ru)

Код:

General
Complete name                    : D:\Video\HQ-Rips\Свадебный разгром\A.Few.Best.Men.2011.HDRip.XviD.AC3.Rus.D.Eng.O.HQ.Underverse.avi
Format                           : AVI
Format/Info                      : Audio Video Interleave
Format profile                   : OpenDML
File size                        : 2.17 GiB
Duration                         : 1h 36mn
Overall bit rate                 : 3 217 Kbps
Writing application              : VirtualDubMod 1.5.10.2 (build 2542/release)
Writing library                  : VirtualDubMod build 2542/release

Video
ID                               : 0
Format                           : MPEG-4 Visual
Format profile                   : Streaming Video@L1
Format settings, BVOP            : Yes
Format settings, QPel            : No
Format settings, GMC             : No warppoints
Format settings, Matrix          : Custom
Muxing mode                      : Packed bitstream
Codec ID                         : XVID
Codec ID/Hint                    : XviD
Duration                         : 1h 36mn
Bit rate                         : 2 303 Kbps
Width                            : 720 pixels
Height                           : 304 pixels
Display aspect ratio             : 2.35
Frame rate                       : 23.976 fps
Resolution                       : 24 bits
Colorimetry                      : 4:2:0
Scan type                        : Progressive
Bits/(Pixel*Frame)               : 0.439
Stream size                      : 1.55 GiB (72%)
Writing library                  : XviD 64

Audio #1
ID                               : 1
Format                           : AC-3
Format/Info                      : Audio Coding 3
Codec ID                         : 2000
Duration                         : 1h 36mn
Bit rate mode                    : Constant
Bit rate                         : 448 Kbps
Channel(s)                       : 6 channels
Channel positions                : Front: L C R, Surround: L R, LFE
Sampling rate                    : 48.0 KHz
Stream size                      : 309 MiB (14%)
Alignment                        : Split accross interleaves
Interleave, duration             : 42 ms (1.00 video frame)
Interleave, preload duration     : 500 ms

Audio #2
ID                               : 2
Format                           : AC-3
Format/Info                      : Audio Coding 3
Codec ID                         : 2000
Duration                         : 1h 36mn
Bit rate mode                    : Constant
Bit rate                         : 448 Kbps
Channel(s)                       : 6 channels
Channel positions                : Front: L C R, Surround: L R, LFE
Sampling rate                    : 48.0 KHz
Stream size                      : 310 MiB (14%)
Alignment                        : Split accross interleaves
Interleave, duration             : 42 ms (1.00 video frame)
Interleave, preload duration     : 500 ms

Релиз группы:
picpicpic
Для увеличения картинки щелкните мышкой по превью

Этот торрент недоступен для скачивания без регистрации, однако доступен по публичной magnet-ссылке (источники с публичных трекеров). Перед использованием ссылки прочтите, пожалуйста Пользовательское соглашение, а также как можно дольше оставайтесь на раздаче! Для того, чтобы скачать сам торрент-файл (который видит больше источников), а также для того, чтобы поблагодарить релизера, вам необходимо зарегистрироваться. Если регистрироваться лень - вы можете также попробовать скачать релиз по нашим партнерским ссылкам ниже.

[underverse.su].t18181.torrent
Трекер: Зарегистрирован   [ 06.06.2012 16:57 ]  

Статус: проверено (by HQ Underverse at 06.06.2012 16:57)
Поблагодарили: 1 человек
Тип торрента: публичный - доступные источники с открытых трекеров: 
Размер: 2,17 GB (занимает 1/2 DVDR, для записи нужно 1 болванка DVDR/RW)
 
 
Похожие темы
Форум Тема Автор Торрент Отв. Посл. сооб.
Зарубежное кино [DVDRip, Low-Res HDRip, и т.д.] Свадебный разгром / A Few Best Men (Стефан Эллиотт) [2011 г., комедия, HDRip] RG NewCinema
0 | 0

0 | 430

11

05.06.2012 22:35

Зарубежное кино [DVDRip, Low-Res HDRip, и т.д.] Свадебный угар / Mike and Dave Need Wedding Dates (Джейк Зиманский) [2016 г., мелодрама, комедия, приключения, HDRip] Dub makkol
8 | 0

0 | 423

11

25.09.2016 21:13

Зарубежное кино [DVDRip, Low-Res HDRip, и т.д.] Свадебный угар / Mike and Dave Need Wedding Dates (Джейк Зиманский / Jake Szymanski) [2016 г., мелодрама, комедия, приключения, BDRip-AVC] Dub + Sub (Rus) 90ytr90
26 | 1

0 | 290

0

10.10.2016 15:54

Зарубежное кино [DVDRip, Low-Res HDRip, и т.д.] Свадебный угар / Mike and Dave Need Wedding Dates (Джейк Зиманский / Jake Szymanski) [2016 г., мелодрама, комедия, приключения, BDRip] Dub + Original (Eng) + Sub (Rus, Eng) 90ytr90
211 | 10

0 | 322

7

10.10.2016 16:32

Зарубежное кино [DVDRip, Low-Res HDRip, и т.д.] Свадебный угар / Mike and Dave Need Wedding Dates (Джейк Зиманский / Jake Szymanski) [2016 г., мелодрама, комедия, приключения, BDRip-AVC] Dub + Original (Eng) + Sub (Rus, Eng) 90ytr90
174 | 11

0 | 277

3

10.10.2016 16:24

Зарубежное кино [HDDVDRip / BDRip / WEB-DL / HDTV 1080/720р] Свадебный угар / Mike and Dave Need Wedding Dates (Джейк Зиманский) [2016 г., мелодрама, комедия, приключения, BDRip 1080p] Dub + Original + Subs makkol
210 | 23

0 | 431

7

27.09.2016 11:44

Зарубежное кино [HDDVDRip / BDRip / WEB-DL / HDTV 1080/720р] Свадебный угар / Mike and Dave Need Wedding Dates (Джейк Зиманский) [2016 г., мелодрама, комедия, приключения, BDRip 720p] Dub + Original + Subs makkol
2 | 0

0 | 372

3

25.09.2016 21:23

Зарубежное кино [HDDVDRip / BDRip / WEB-DL / HDTV 1080/720р] Свадебный угар / Mike and Dave Need Wedding Dates (Джейк Зиманский / Jake Szymanski) [2016 г., мелодрама, комедия, приключения, BDRip 1080p] Dub + Original (Eng) + Sub (Rus, Eng) 90ytr90
165 | 18

0 | 292

4

10.10.2016 16:39


Яндекс.Метрика powered by Sphinx


В Н И М А Н И Е
Сайт не распространяет и не хранит электронные версии произведений, а лишь бесплатно и без коммерческой выгоды (не требуя взамен платы,
SMS и т.д.) предоставляет доступ к создаваемому пользователями каталогу ссылок на торрент-файлы, которые содержат только списки хеш-сумм.
Убедительная просьба с жалобами обращаться напрямую к пользователю, разместившему торрент файл.

Вверх