Loading...
Error

Код доступа «Кейптаун» / Safe House (Дэниэл Эспиноза) [2012 г., боевик, триллер, криминал, детектив, HDRip]

Статистика раздачи
Размер:  1,37 GB   |    Зарегистрирован:  4 года 5 месяцев   |    Скачан:  47 раз

Полного источника не было: 3 месяца

Сидов:  0  |  0 KB/s  ]   Личеров:  0  |  0 KB/s  ]

* - сиды/пиры с внешних источников

   
 
Автор Сообщение

zubroma Пол:Муж

06-Июн-2012 16:07

Код доступа «Кейптаун» / Safe House


Год выпуска: 2012
Жанр: боевик, триллер, криминал, детектив
Страна: США
Режиссер: Дэниэл Эспиноза
В ролях: Дензел Вашингтон, Райан Рейнольдс, Вера Фармига, Брендан Глисон, Сэм Шепард, Рубен Бладес, Нора Арнезедер, Роберт Патрик, Лиам Каннингэм, Юэль Киннаман
Сюжет фильма:
Выпускник Гарварда Мэтт мечтает со своей невестой переехать в Париж. Но она не знает, что уже год он работает на ЦРУ.

Легендарный агент ЦРУ Фрост владеет секретной информацией. Но он вышел из-под контроля, и теперь его главное правило: не доверяй никому тебя предаст каждый.

Их пути пересекутся в одном из красивейших городов мира Кейптауне, где каждый должен будет сделать свой выбор.

  • Мировая премьера: 7 февраля 2012
  • Российская премьера: 9 февраля 2012, UPI


Качество видео: HDRip

Продолжительность: 01:54:54

Формат: avi
Видео: XviD, 720x304, 1307 kbps
Аудио: русский, дублированный (лицензия), AC3 5.1, 384 kbps

Код:

General
Complete name                    : D:\Films\DVDRip\Kod.Dostupa.Keyptaun.2012.XviD.HDRip.avi
Format                           : AVI
Format/Info                      : Audio Video Interleave
File size                        : 1.37 GiB
Duration                         : 1h 54mn
Overall bit rate                 : 1 701 Kbps
Writing application              : VirtualDubMod 1.5.10.2 (build 2540/release)
Writing library                  : VirtualDubMod build 2540/release

Video
ID                               : 0
Format                           : MPEG-4 Visual
Format profile                   : Streaming Video@L1
Format settings, BVOP            : Yes
Format settings, QPel            : No
Format settings, GMC             : No warppoints
Format settings, Matrix          : Default (MPEG)
Codec ID                         : XVID
Codec ID/Hint                    : XviD
Duration                         : 1h 54mn
Bit rate                         : 1 308 Kbps
Width                            : 720 pixels
Height                           : 304 pixels
Display aspect ratio             : 2.35
Frame rate                       : 23.976 fps
Resolution                       : 24 bits
Colorimetry                      : 4:2:0
Scan type                        : Progressive
Bits/(Pixel*Frame)               : 0.249
Stream size                      : 1.05 GiB (77%)
Writing library                  : XviD 1.2.1 (UTC 2008-12-04)

Audio
ID                               : 1
Format                           : AC-3
Format/Info                      : Audio Coding 3
Codec ID                         : 2000
Duration                         : 1h 54mn
Bit rate mode                    : Constant
Bit rate                         : 384 Kbps
Channel(s)                       : 6 channels
Channel positions                : Front: L C R, Surround: L R, LFE
Sampling rate                    : 48.0 KHz
Video delay                      : 20ms
Stream size                      : 315 MiB (23%)
Alignment                        : Split accross interleaves
Interleave, duration             : 42 ms (1.00 video frame)
Interleave, preload duration     : 500 ms

picpicpicpicpic
Для увеличения картинки щелкните мышкой по превью

Этот торрент недоступен для скачивания без регистрации, однако доступен по публичной magnet-ссылке (источники с публичных трекеров). Перед использованием ссылки прочтите, пожалуйста Пользовательское соглашение, а также как можно дольше оставайтесь на раздаче! Для того, чтобы скачать сам торрент-файл (который видит больше источников), а также для того, чтобы поблагодарить релизера, вам необходимо зарегистрироваться. Если регистрироваться лень - вы можете также попробовать скачать релиз по нашим партнерским ссылкам ниже.

[underverse.su].t18180.torrent
Трекер: Зарегистрирован   [ 06.06.2012 16:08 ]  

Статус: проверено (by Паукан at 06.06.2012 16:20)
Поблагодарили: 2 человека
Тип торрента: публичный - доступные источники с открытых трекеров: 
Размер: 1,37 GB (занимает 0,31 DVDR, для записи нужно 1 болванка DVDR/RW)
 
 
Похожие темы
Форум Тема Автор Торрент Отв. Посл. сооб.
Зарубежное кино [DVDRip, Low-Res HDRip, и т.д.] Код доступа «София» / Sofia (Айзек Флорентайн) [2012 г., боевик, триллер, драма, DVDRip] nemos
0 | 0

1 | 877

40

22.07.2012 19:17

Зарубежное кино [DVDRip, Low-Res HDRip, и т.д.] Код доступа «София» / Sofia / Assassin's Bullet (Айзек Флорентайн) [2012 г., боевик, триллер, драма, HDRip] [лицензия] 90ytr90
10 | 0

0 | 635

39

16.09.2012 09:30

Зарубежное кино [DVDRip, Low-Res HDRip, и т.д.] Код доступа «Кейптаун» / Safe House (Дэниэл Эспиноза / Daniel Espinosa) [2012 г., боевик, триллер, криминал, HDRip] Dub Gaarochi
12 | 0

0 | 970

22

02.04.2013 08:31

Зарубежное кино HQ Код доступа «Кейптаун» / Safe House (Дэниэл Эспиноза) [2012 г., боевик, триллер, криминал, детектив, HDRip] (Rus, Eng) HQ Underverse HQ Underverse
0 | 0

1 | 1024

73

09.06.2012 15:20

* Архив Код доступа: РАЙ / Paradise Cracked [2003 г., Strategy (Turn-based / Tactical) / RPG / 3D] RUS gvg90

3 | 2064

30.08.2010 01:31


Яндекс.Метрика powered by Sphinx


В Н И М А Н И Е
Сайт не распространяет и не хранит электронные версии произведений, а лишь бесплатно и без коммерческой выгоды (не требуя взамен платы,
SMS и т.д.) предоставляет доступ к создаваемому пользователями каталогу ссылок на торрент-файлы, которые содержат только списки хеш-сумм.
Убедительная просьба с жалобами обращаться напрямую к пользователю, разместившему торрент файл.

Вверх