Loading...
Error

Крепкий сон / Mientras duermes (Жауме Балагуэро) [2011 г., ужасы, триллер, HDRip]

Статистика раздачи
Размер:  1,46 GB   |    Зарегистрирован:  4 года 5 месяцев   |    Скачан:  19 раз

Полного источника не было: 1 день 23 часа

Сидов:  0  |  0 KB/s  ]   Личеров:  0  |  0 KB/s  ]

* - сиды/пиры с внешних источников

   
 
Автор Сообщение

RG NewCinema 

06-Июн-2012 03:58

Крепкий сон / Mientras duermes


Год выпуска: 2011
Жанр: ужасы, триллер
Страна: Испания
Режиссер: Жауме Балагуэро
В ролях: Луис Тосар, Марта Этура, Альберто Сан Хуан, Карлос Ласарте, Петра Мартинес, Пеп Тосар, Tony Corvillo, Ирис Альмейда, Манель Дуэсо, Ампаро Фернандез
Сюжет фильма:
Главный герой Сезар, работающий швейцаром в большом жилом доме, в Барселоне. Кажется, что он маленький незаметный человек, который лишь открывает и закрывает двери, но на самом деле он тот, кто замечает и знает про жителей многоквартирного дома абсолютно все. Он глубоко несчастлив и ищет хоть какую-нибудь причину для дальнейшего своего существования. День за днем он выполняет свою работу и, пока на него никто из жителей дома не обращает особого внимания, сам он неустанно наблюдает за ними. Он знает каждую мелочь в их жизнях, все о них, а в особенности про одну из них. Везучая молодая женщина Клара Кинг всегда смотрит на окружающий мир позитивно. Ее легкое отношение к жизни вызывает у Сезара мурашки по коже. Он не будет счастлив пока не сотрет улыбку с лица у нее и у всех остальных, потому что Сезар питается болью других людей. Он весь сияет в лучах невезения и несчастья других и больше всего на свете любит сеять зерна отчаяния и наблюдать за тем, во что те вырастают. Клара кажется ему идеальной мишенью и он пойдет на все, чтобы превратить ее жизнь в страдание. Однако Сезар становится слишком наглым и его коварные планы могут быть раскрыты. К счастью для него, у злодея есть еще один козырь в кармане.

  • Мировая премьера: 23 сентября 2011

/
Качество видео: HDRip

Продолжительность: 01:40:44

Формат: avi
Видео: XviD, 720x304, 1824 kbps
Аудио: русский, многоголосый закадровый [любительский], AC3 2.0, 256 kbps

Код:

General
Complete name                    : C:\Downloads\Krepkij.son.2011.L2.HDRip.avi
Format                           : AVI
Format/Info                      : Audio Video Interleave
File size                        : 1.46 GiB
Duration                         : 1h 40mn
Overall bit rate                 : 2 080 Kbps
Writing application              : VirtualDubMod 1.5.10.2 (build 2540/release)
Writing library                  : VirtualDubMod build 2540/release

Video
ID                               : 0
Format                           : MPEG-4 Visual
Format profile                   : Streaming Video@L1
Format settings, BVOP            : Yes
Format settings, QPel            : No
Format settings, GMC             : No warppoints
Format settings, Matrix          : Default (MPEG)
Codec ID                         : XVID
Codec ID/Hint                    : XviD
Duration                         : 1h 40mn
Bit rate                         : 1 825 Kbps
Width                            : 720 pixels
Height                           : 304 pixels
Display aspect ratio             : 2.35
Frame rate                       : 24.000 fps
Resolution                       : 24 bits
Colorimetry                      : 4:2:0
Scan type                        : Progressive
Bits/(Pixel*Frame)               : 0.347
Stream size                      : 1.28 GiB (88%)
Writing library                  : XviD 64

Audio
ID                               : 1
Format                           : AC-3
Format/Info                      : Audio Coding 3
Codec ID                         : 2000
Duration                         : 1h 36mn
Bit rate mode                    : Constant
Bit rate                         : 256 Kbps
Channel(s)                       : 2 channels
Channel positions                : L R
Sampling rate                    : 48.0 KHz
Stream size                      : 178 MiB (12%)
Alignment                        : Split accross interleaves
Interleave, duration             : 43 ms (1.04 video frame)
Interleave, preload duration     : 500 ms

Семпл: http://sendfile.su/607278
picpicpic
Для увеличения картинки щелкните мышкой по превью

Этот торрент недоступен для скачивания без регистрации, однако доступен по публичной magnet-ссылке (источники с публичных трекеров). Перед использованием ссылки прочтите, пожалуйста Пользовательское соглашение, а также как можно дольше оставайтесь на раздаче! Для того, чтобы скачать сам торрент-файл (который видит больше источников), а также для того, чтобы поблагодарить релизера, вам необходимо зарегистрироваться. Если регистрироваться лень - вы можете также попробовать скачать релиз по нашим партнерским ссылкам ниже.

[underverse.su].t18174.torrent
Трекер: Зарегистрирован   [ 06.06.2012 03:58 ]  

Статус: проверено (by Паукан at 06.06.2012 04:00)
Поблагодарили: пока никто не поблагодарил...
Тип торрента: публичный - доступные источники с открытых трекеров: 
Размер: 1,46 GB (занимает 0,33 DVDR, для записи нужно 1 болванка DVDR/RW)
 
 

Яндекс.Метрика powered by Sphinx


В Н И М А Н И Е
Сайт не распространяет и не хранит электронные версии произведений, а лишь бесплатно и без коммерческой выгоды (не требуя взамен платы,
SMS и т.д.) предоставляет доступ к создаваемому пользователями каталогу ссылок на торрент-файлы, которые содержат только списки хеш-сумм.
Убедительная просьба с жалобами обращаться напрямую к пользователю, разместившему торрент файл.

Вверх