Loading...
Error

Подмена / Switch (Фредерик Шёндёрфер) [2011 г., триллер, криминал, HDRip] [Xixidok]

Статистика раздачи
Размер:  1,37 GB   |    Зарегистрирован:  4 года 5 месяцев   |    Скачан:  14 раз

Полного источника не было: 4 месяца 21 день

Сидов:  0  |  0 KB/s  ]   Личеров:  0  |  0 KB/s  ]

* - сиды/пиры с внешних источников

   
 
Автор Сообщение

RG NewCinema 

06-Июн-2012 00:26

Подмена / Switch


Год выпуска: 2011
Жанр: триллер, криминал
Страна: Франция
Режиссер: Фредерик Шёндёрфер
В ролях: Карин Ванасс, Эрик Кантона, Мехди Неббу, Орельен Рекуан, Карина Теста, Бруно Тодескини, Максим Рой, Нисеема, Софи Фочер, Стефан Гуэрин-Тилли
Сюжет фильма:
Не имея никаких планов, 25-летняя дизайнер моды из Канады Софи с тоской смотрит на приближающийся летний отпуск. Попавшийся ей на глаза сайт в интернете предлагает обмен домами, и взамен своего дома она на месяц получает апартаменты с видом на Эйфелеву башню в Париже. Первый день на новом месте был полной идиллией, но на утро она пробуждается от вторжения полиции. В соседней комнате находят обезглавленное тело, а сама Софи оказывается не способной доказать полиции, что она не владелица квартиры Бенедикт Серто. Ловушка перед ней быстро захлопывается.

  • Мировая премьера: 6 июля 2011

/
Качество видео: HDRip

Продолжительность: 01:41:41

Формат: avi
Видео: XviD, 720x400, 1795 kbps
Аудио: русский, одноголосый закадровый [любительский, Хихикающий доктор], MP3 2.0, 128 kbps

Код:

General
Complete name                    : C:\Downloads\Podmena.2011.L1.HDRip.avi
Format                           : AVI
Format/Info                      : Audio Video Interleave
File size                        : 1.37 GiB
Duration                         : 1h 41mn
Overall bit rate                 : 1 933 Kbps
Writing application              : VirtualDubMod 1.5.10.3 | www.virtualdub-fr.org || (build 2550/release)
Writing library                  : VirtualDubMod build 2550/release

Video
ID                               : 0
Format                           : MPEG-4 Visual
Format profile                   : Streaming Video@L1
Format settings, BVOP            : Yes
Format settings, QPel            : No
Format settings, GMC             : No warppoints
Format settings, Matrix          : Default (MPEG)
Codec ID                         : XVID
Codec ID/Hint                    : XviD
Duration                         : 1h 41mn
Bit rate                         : 1 795 Kbps
Width                            : 720 pixels
Height                           : 400 pixels
Display aspect ratio             : 16/9
Frame rate                       : 23.976 fps
Resolution                       : 24 bits
Colorimetry                      : 4:2:0
Scan type                        : Progressive
Bits/(Pixel*Frame)               : 0.260
Stream size                      : 1.28 GiB (93%)
Writing library                  : XviD 1.2.1 (UTC 2008-12-04)

Audio
ID                               : 1
Format                           : MPEG Audio
Format version                   : Version 1
Format profile                   : Layer 3
Codec ID                         : 55
Codec ID/Hint                    : MP3
Duration                         : 1h 41mn
Bit rate mode                    : Constant
Bit rate                         : 128 Kbps
Channel(s)                       : 2 channels
Sampling rate                    : 44.1 KHz
Resolution                       : 16 bits
Video delay                      : 50ms
Stream size                      : 93.1 MiB (7%)
Alignment                        : Split accross interleaves
Interleave, duration             : 42 ms (1.00 video frame)
Interleave, preload duration     : 500 ms

Семпл: http://multi-up.com/714108
picpicpic
Для увеличения картинки щелкните мышкой по превью

Этот торрент недоступен для скачивания без регистрации, однако доступен по публичной magnet-ссылке (источники с публичных трекеров). Перед использованием ссылки прочтите, пожалуйста Пользовательское соглашение, а также как можно дольше оставайтесь на раздаче! Для того, чтобы скачать сам торрент-файл (который видит больше источников), а также для того, чтобы поблагодарить релизера, вам необходимо зарегистрироваться. Если регистрироваться лень - вы можете также попробовать скачать релиз по нашим партнерским ссылкам ниже.

[underverse.su].t18173.torrent
Трекер: Зарегистрирован   [ 06.06.2012 00:26 ]  

Статус: проверено (by Паукан at 06.06.2012 00:35)
Поблагодарили: пока никто не поблагодарил...
Тип торрента: публичный - доступные источники с открытых трекеров: 
Размер: 1,37 GB (занимает 0,31 DVDR, для записи нужно 1 болванка DVDR/RW)
 
 
Похожие темы
Форум Тема Автор Торрент Отв. Посл. сооб.
Зарубежное кино [DVDRip, Low-Res HDRip, и т.д.] Подмена / Switch (Фредерик Шёндёрфер) [2011 г., триллер, криминал, HDRip] RG NewCinema
0 | 1

0 | 377

9

11.06.2012 16:54

Зарубежное кино [DVDRip, Low-Res HDRip, и т.д.] Подмена / Switch (Фредерик Шёндёрфер) [2011 г., триллер, криминал, HDRip] MVO [НТВ+] Паукан
4 | 1

0 | 806

30

12.07.2013 09:29

Зарубежное кино [DVDRip, Low-Res HDRip, и т.д.] Подмена / Changeling (Клинт Иствуд / Clint Eastwood) [2008 г., драма, детектив, HDRip] Dub 90ytr90
90 | 1

0 | 1960

35

17.12.2013 18:09

Зарубежное кино [DVDRip, Low-Res HDRip, и т.д.] Подмена / Changeling (Клинт Иствуд / Clint Eastwood) [2008 г., драма, детектив, BDRip] Dub 90ytr90
10 | 0

0 | 623

1

23.05.2016 16:33

Зарубежное кино [DVDRip, Low-Res HDRip, и т.д.] Подмена / Changeling (Клинт Иствуд / Clint Eastwood) [2008 г., драма, детектив, BDRip] Dub + Original (Eng) 90ytr90
8 | 0

0 | 789

1

23.05.2016 16:44

Зарубежное кино [HDDVDRip / BDRip / WEB-DL / HDTV 1080/720р] Подмена / Changeling (Клинт Иствуд / Clint Eastwood) [2008 г., драма, детектив, BDRip1080p] Dub + Original (Eng) + Sub (Rus, Eng) 90ytr90
39 | 0

0 | 790

5

23.05.2016 17:04

Архив Подмена / Changeling (Клинт Иствуд) [2008 г., драма, детектив, история, BDRip] Паукан
0 | 0

3 | 1104

3

17.02.2011 14:46


Яндекс.Метрика powered by Sphinx


В Н И М А Н И Е
Сайт не распространяет и не хранит электронные версии произведений, а лишь бесплатно и без коммерческой выгоды (не требуя взамен платы,
SMS и т.д.) предоставляет доступ к создаваемому пользователями каталогу ссылок на торрент-файлы, которые содержат только списки хеш-сумм.
Убедительная просьба с жалобами обращаться напрямую к пользователю, разместившему торрент файл.

Вверх