Loading...
Error

Учитель на замену / Detachment (Тони Кэй) [2011 г., драма, HDRip] [лицензия]

Статистика раздачи
Размер:  1,46 GB   |    Зарегистрирован:  4 года 5 месяцев   |    Скачан:  11 раз

Полного источника не было: 1 день 7 часов

Сидов:  0  |  0 KB/s  ]   Личеров:  0  |  0 KB/s  ]

* - сиды/пиры с внешних источников

   
 
Автор Сообщение

RG NewCinema 

05-Июн-2012 23:39

Учитель на замену / Detachment


Год выпуска: 2011
Жанр: драма
Страна: США
Режиссер: Тони Кэй
В ролях: Эдриан Броуди, Кристина Хендрикс, Марша Гэй Харден, Джеймс Каан, Люси Лью, Блайт Даннер, Тим Блейк Нельсон, Уильям Л. Питерсен, Брайан Крэнстон, Сами Гэйл
Сюжет фильма:
У Генри Бартса настоящий талант ладить с учениками. Чтобы избежать каких-либо эмоциональных привязанностей к подопечным, он решил нигде не задерживаться на длительное время. Когда он прибывает на новое место в государственную школу, где учителя абсолютно безразличны к судьбе учеников, то быстро становится образцом для подражания и самым популярным педагогом.

  • Мировая премьера: 25 апреля 2011
  • Российская премьера: 3 мая 2012, Премиум Фильм

/
Качество видео: HDRip

Продолжительность: 01:37:39

Формат: avi
Видео: XviD, 720x384, 1678 kbps
Аудио: русский, многоголосый закадровый [профессиональный], AC3 5.1, 448 kbps

Код:

General
Complete name                    : D:\Video\Sources\Uchitel.na.zamenu.2011.P.HDRip.avi
Format                           : AVI
Format/Info                      : Audio Video Interleave
File size                        : 1.46 GiB
Duration                         : 1h 37mn
Overall bit rate                 : 2 136 Kbps
Movie name                       : Uchitel.na.zamenu.2011.P.HDRip.IRONCLUB
Director                         : IRONCLUB
Genre                            : Drama
Writing application              : VirtualDubMod 1.5.10.2 (build 2540/release)
Original source form/Name        : Movie
Copyright                        : http://ironclub.tv/

Video
ID                               : 0
Format                           : MPEG-4 Visual
Format profile                   : Streaming Video@L1
Format settings, BVOP            : Yes
Format settings, QPel            : No
Format settings, GMC             : No warppoints
Format settings, Matrix          : Custom
Codec ID                         : XVID
Codec ID/Hint                    : XviD
Duration                         : 1h 37mn
Bit rate                         : 1 678 Kbps
Width                            : 720 pixels
Height                           : 384 pixels
Display aspect ratio             : 1.875
Frame rate                       : 23.976 fps
Resolution                       : 24 bits
Colorimetry                      : 4:2:0
Scan type                        : Progressive
Bits/(Pixel*Frame)               : 0.253
Stream size                      : 1.14 GiB (79%)
Writing library                  : XviD 1.2.1 (UTC 2008-12-04)

Audio
ID                               : 1
Format                           : AC-3
Format/Info                      : Audio Coding 3
Codec ID                         : 2000
Duration                         : 1h 37mn
Bit rate mode                    : Constant
Bit rate                         : 448 Kbps
Channel(s)                       : 6 channels
Channel positions                : Front: L C R, Surround: L R, LFE
Sampling rate                    : 48.0 KHz
Stream size                      : 313 MiB (21%)
Alignment                        : Split accross interleaves
Interleave, duration             : 42 ms (1.00 video frame)
Interleave, preload duration     : 500 ms

Семпл: http://sendfile.su/608470
picpicpic
Для увеличения картинки щелкните мышкой по превью

Этот торрент недоступен для скачивания без регистрации, однако доступен по публичной magnet-ссылке (источники с публичных трекеров). Перед использованием ссылки прочтите, пожалуйста Пользовательское соглашение, а также как можно дольше оставайтесь на раздаче! Для того, чтобы скачать сам торрент-файл (который видит больше источников), а также для того, чтобы поблагодарить релизера, вам необходимо зарегистрироваться. Если регистрироваться лень - вы можете также попробовать скачать релиз по нашим партнерским ссылкам ниже.

[underverse.su].t18171.torrent
Трекер: Зарегистрирован   [ 05.06.2012 23:39 ]  

Статус: проверено (by Паукан at 05.06.2012 23:46)
Поблагодарили: пока никто не поблагодарил...
Тип торрента: публичный - доступные источники с открытых трекеров: 
Размер: 1,46 GB (занимает 1/3 DVDR, для записи нужно 1 болванка DVDR/RW)
 
 

Яндекс.Метрика powered by Sphinx


В Н И М А Н И Е
Сайт не распространяет и не хранит электронные версии произведений, а лишь бесплатно и без коммерческой выгоды (не требуя взамен платы,
SMS и т.д.) предоставляет доступ к создаваемому пользователями каталогу ссылок на торрент-файлы, которые содержат только списки хеш-сумм.
Убедительная просьба с жалобами обращаться напрямую к пользователю, разместившему торрент файл.

Вверх