Loading...
Error

Свадебный разгром / A Few Best Men (Стефан Эллиотт) [2011 г., комедия, HDRip]

Статистика раздачи
Размер:  1,46 GB   |    Зарегистрирован:  4 года 6 месяцев   |    Скачан:  11 раз

Полного источника не было: 2 месяца 23 дня

Сидов:  0  |  0 KB/s  ]   Личеров:  0  |  0 KB/s  ]

* - сиды/пиры с внешних источников

   
 
Автор Сообщение

RG NewCinema 

05-Июн-2012 22:35

Свадебный разгром / A Few Best Men


Год выпуска: 2011
Жанр: комедия
Страна: США , Великобритания , Австралия
Режиссер: Стефан Эллиотт
В ролях: Завьер Сэмюэл, Крис Маршалл, Кевин Бишоп, Тим Драксл, Лаура Брент, Ребел Уилсон, Оливия Ньютон-Джон, Джонатан Биггинс, Стив Ле Маркванд
Сюжет фильма:
Как празднуют свадьбу в Австралии? Да круче, чем новый год в России. Шикарная церемония, море алкоголя и тройка верных друзей, решивших оторваться на полную катушку. Сможет ли настоящая любовь пережить эти испытания?

  • Мировая премьера: 14 октября 2011
  • Российская премьера: 3 мая 2012, Наше Кино, Премиум Фильм

/
Качество видео: HDRip

Продолжительность: 01:36:32

Формат: avi
Видео: XviD, 720x304, 1702 kbps
Аудио: русский, дублированный [лицензия], AC3 5.1, 448 kbps

Код:

General
Complete name                    : D:\Video\Sources\Svadebnyj.razgrom.2011.D.HDRip.avi
Format                           : AVI
Format/Info                      : Audio Video Interleave
File size                        : 1.46 GiB
Duration                         : 1h 36mn
Overall bit rate                 : 2 160 Kbps
Movie name                       : Svadebnyj.razgrom.2011.D.HDRip.IRONCLUB
Director                         : IRONCLUB
Genre                            : Comedy
Writing application              : VirtualDubMod 1.5.10.2 (build 2540/release)
Original source form/Name        : Movie
Copyright                        : http://ironclub.tv/

Video
ID                               : 0
Format                           : MPEG-4 Visual
Format profile                   : Streaming Video@L1
Format settings, BVOP            : Yes
Format settings, QPel            : No
Format settings, GMC             : No warppoints
Format settings, Matrix          : Custom
Codec ID                         : XVID
Codec ID/Hint                    : XviD
Duration                         : 1h 36mn
Bit rate                         : 1 703 Kbps
Width                            : 720 pixels
Height                           : 304 pixels
Display aspect ratio             : 2.35
Frame rate                       : 24.000 fps
Resolution                       : 24 bits
Colorimetry                      : 4:2:0
Scan type                        : Progressive
Bits/(Pixel*Frame)               : 0.324
Stream size                      : 1.15 GiB (79%)
Writing library                  : XviD 1.2.1 (UTC 2008-12-04)

Audio
ID                               : 1
Format                           : AC-3
Format/Info                      : Audio Coding 3
Codec ID                         : 2000
Duration                         : 1h 36mn
Bit rate mode                    : Constant
Bit rate                         : 448 Kbps
Channel(s)                       : 6 channels
Channel positions                : Front: L C R, Surround: L R, LFE
Sampling rate                    : 48.0 KHz
Stream size                      : 309 MiB (21%)
Alignment                        : Split accross interleaves
Interleave, duration             : 42 ms (1.00 video frame)
Interleave, preload duration     : 500 ms

Семпл: http://sendfile.su/608451
picpicpic
Для увеличения картинки щелкните мышкой по превью

Этот торрент недоступен для скачивания без регистрации, однако доступен по публичной magnet-ссылке (источники с публичных трекеров). Перед использованием ссылки прочтите, пожалуйста Пользовательское соглашение, а также как можно дольше оставайтесь на раздаче! Для того, чтобы скачать сам торрент-файл (который видит больше источников), а также для того, чтобы поблагодарить релизера, вам необходимо зарегистрироваться. Если регистрироваться лень - вы можете также попробовать скачать релиз по нашим партнерским ссылкам ниже.

[underverse.su].t18170.torrent
Трекер: Зарегистрирован   [ 05.06.2012 22:35 ]  

Статус: проверено (by Паукан at 05.06.2012 22:46)
Поблагодарили: пока никто не поблагодарил...
Тип торрента: публичный - доступные источники с открытых трекеров: 
Размер: 1,46 GB (занимает 1/3 DVDR, для записи нужно 1 болванка DVDR/RW)
 
 
Похожие темы
Форум Тема Автор Торрент Отв. Посл. сооб.
Зарубежное кино [DVDRip, Low-Res HDRip, и т.д.] Свадебный угар / Mike and Dave Need Wedding Dates (Джейк Зиманский) [2016 г., мелодрама, комедия, приключения, HDRip] Dub makkol
8 | 0

0 | 428

11

25.09.2016 21:13

Зарубежное кино [DVDRip, Low-Res HDRip, и т.д.] Свадебный угар / Mike and Dave Need Wedding Dates (Джейк Зиманский / Jake Szymanski) [2016 г., мелодрама, комедия, приключения, BDRip-AVC] Dub + Sub (Rus) 90ytr90
26 | 1

0 | 291

0

10.10.2016 15:54

Зарубежное кино [DVDRip, Low-Res HDRip, и т.д.] Свадебный угар / Mike and Dave Need Wedding Dates (Джейк Зиманский / Jake Szymanski) [2016 г., мелодрама, комедия, приключения, BDRip] Dub + Original (Eng) + Sub (Rus, Eng) 90ytr90
211 | 10

0 | 325

7

10.10.2016 16:32

Зарубежное кино [DVDRip, Low-Res HDRip, и т.д.] Свадебный угар / Mike and Dave Need Wedding Dates (Джейк Зиманский / Jake Szymanski) [2016 г., мелодрама, комедия, приключения, BDRip-AVC] Dub + Original (Eng) + Sub (Rus, Eng) 90ytr90
174 | 11

0 | 278

3

10.10.2016 16:24

Зарубежное кино HQ Свадебный разгром / A Few Best Men (Стефан Эллиотт) [2011 г., комедия, HDRip] (Rus, Eng) HQ Underverse HQ Underverse
0 | 7

0 | 691

18

06.06.2012 16:57

Зарубежное кино [HDDVDRip / BDRip / WEB-DL / HDTV 1080/720р] Свадебный угар / Mike and Dave Need Wedding Dates (Джейк Зиманский) [2016 г., мелодрама, комедия, приключения, BDRip 1080p] Dub + Original + Subs makkol
210 | 23

0 | 435

7

27.09.2016 11:44

Зарубежное кино [HDDVDRip / BDRip / WEB-DL / HDTV 1080/720р] Свадебный угар / Mike and Dave Need Wedding Dates (Джейк Зиманский) [2016 г., мелодрама, комедия, приключения, BDRip 720p] Dub + Original + Subs makkol
2 | 0

0 | 373

3

25.09.2016 21:23

Зарубежное кино [HDDVDRip / BDRip / WEB-DL / HDTV 1080/720р] Свадебный угар / Mike and Dave Need Wedding Dates (Джейк Зиманский / Jake Szymanski) [2016 г., мелодрама, комедия, приключения, BDRip 1080p] Dub + Original (Eng) + Sub (Rus, Eng) 90ytr90
165 | 18

0 | 296

4

10.10.2016 16:39


Яндекс.Метрика powered by Sphinx


В Н И М А Н И Е
Сайт не распространяет и не хранит электронные версии произведений, а лишь бесплатно и без коммерческой выгоды (не требуя взамен платы,
SMS и т.д.) предоставляет доступ к создаваемому пользователями каталогу ссылок на торрент-файлы, которые содержат только списки хеш-сумм.
Убедительная просьба с жалобами обращаться напрямую к пользователю, разместившему торрент файл.

Вверх