Loading...
Error

Парень из Филадельфии / The Philly Kid (Джейсон Коннери) [2012 г., боевик, драма, VODRip]

Статистика раздачи
Размер:  1,37 GB   |    Зарегистрирован:  4 года 5 месяцев   |    Скачан:  8 раз

Полного источника не было: 11 месяцев

Сидов:  0  |  0 KB/s  ]   Личеров:  0  |  0 KB/s  ]

* - сиды/пиры с внешних источников

   
 
Автор Сообщение

RG NewCinema 

03-Июн-2012 19:10

Парень из Филадельфии / The Philly Kid


Год выпуска: 2012
Жанр: боевик, драма
Страна: США
Режиссер: Джейсон Коннери
В ролях: Уэс Чэтэм, Девон Сава, Сара Батлер, Нил МакДонаф, Лаки Джонсон, Крис Браунинг, Адам Мервис, Бернард Хок, Ава Богл, Эрик Скотт Вудс
Сюжет фильма:
После 10-летнего тюремного заключения освобожден под честное слово борец-бывший чемпион Национальной Атлетической Ассоциации. Теперь чтобы спасти жизнь другу он должен сделать невозможное для себя, проиграть в серии борцовских поединков в клетке.

  • Мировая премьера: 11 мая 2012

|
Качество видео: VODRip

Продолжительность: 01:33:27

Формат: avi
Видео: XviD, 720x400, 1705 kbps
Аудио: русский, многоголосый закадровый [профессиональный], AC3 5.1, 384 kbps

Код:

General
Complete name                    : D:\Video\Sources\Paren.iz.Filadelfii.2012.P.VODRip.avi
Format                           : AVI
Format/Info                      : Audio Video Interleave
File size                        : 1.37 GiB
Duration                         : 1h 33mn
Overall bit rate                 : 2 099 Kbps
Writing application              : VirtualDubMod 1.5.10.2 (build 2540/release)
Writing library                  : VirtualDubMod build 2540/release

Video
ID                               : 0
Format                           : MPEG-4 Visual
Format profile                   : Streaming Video@L1
Format settings, BVOP            : Yes
Format settings, QPel            : No
Format settings, GMC             : No warppoints
Format settings, Matrix          : Default (H.263)
Muxing mode                      : Packed bitstream
Codec ID                         : XVID
Codec ID/Hint                    : XviD
Duration                         : 1h 33mn
Bit rate                         : 1 705 Kbps
Width                            : 720 pixels
Height                           : 400 pixels
Display aspect ratio             : 16/9
Frame rate                       : 23.976 fps
Resolution                       : 24 bits
Colorimetry                      : 4:2:0
Scan type                        : Progressive
Bits/(Pixel*Frame)               : 0.247
Stream size                      : 1.11 GiB (81%)
Writing library                  : XviD 1.1.2 (UTC 2006-11-01)

Audio
ID                               : 1
Format                           : AC-3
Format/Info                      : Audio Coding 3
Codec ID                         : 2000
Duration                         : 1h 33mn
Bit rate mode                    : Constant
Bit rate                         : 384 Kbps
Channel(s)                       : 6 channels
Channel positions                : Front: L C R, Surround: L R, LFE
Sampling rate                    : 48.0 KHz
Stream size                      : 257 MiB (18%)
Alignment                        : Split accross interleaves
Interleave, duration             : 42 ms (1.00 video frame)
Interleave, preload duration     : 500 ms

Семпл: http://multi-up.com/713042/
picpicpic
Для увеличения картинки щелкните мышкой по превью

Этот торрент недоступен для скачивания без регистрации, однако доступен по публичной magnet-ссылке (источники с публичных трекеров). Перед использованием ссылки прочтите, пожалуйста Пользовательское соглашение, а также как можно дольше оставайтесь на раздаче! Для того, чтобы скачать сам торрент-файл (который видит больше источников), а также для того, чтобы поблагодарить релизера, вам необходимо зарегистрироваться. Если регистрироваться лень - вы можете также попробовать скачать релиз по нашим партнерским ссылкам ниже.

[underverse.su].t18152.torrent
Трекер: Зарегистрирован   [ 03.06.2012 19:10 ]  

Статус: проверено (by Паукан at 03.06.2012 21:40)
Поблагодарили: пока никто не поблагодарил...
Тип торрента: публичный - доступные источники с открытых трекеров: 
Размер: 1,37 GB (занимает 0,31 DVDR, для записи нужно 1 болванка DVDR/RW)
 
 
Похожие темы
Форум Тема Автор Торрент Отв. Посл. сооб.
Зарубежное кино [DVDRip, Low-Res HDRip, и т.д.] Парень из Филадельфии / The Philly Kid (Джейсон Коннери) [2012 г., боевик, драма, DVDRip] DUB Greshnik
9 | 0

0 | 649

11

24.07.2012 10:44


Яндекс.Метрика powered by Sphinx


В Н И М А Н И Е
Сайт не распространяет и не хранит электронные версии произведений, а лишь бесплатно и без коммерческой выгоды (не требуя взамен платы,
SMS и т.д.) предоставляет доступ к создаваемому пользователями каталогу ссылок на торрент-файлы, которые содержат только списки хеш-сумм.
Убедительная просьба с жалобами обращаться напрямую к пользователю, разместившему торрент файл.

Вверх