Loading...
Error

Глубокое синее море / The Deep Blue Sea (Теренс Дэвис) [2011 г., драма, мелодрама, HDRip]

Статистика раздачи
Размер:  1,45 GB   |    Зарегистрирован:  4 года 6 месяцев   |    Скачан:  10 раз

Полного источника не было: 12 дней

Сидов:  0  |  0 KB/s  ]   Личеров:  0  |  0 KB/s  ]

* - сиды/пиры с внешних источников

   
 
Автор Сообщение

RG NewCinema 

03-Июн-2012 10:58

Глубокое синее море / The Deep Blue Sea


Год выпуска: 2011
Жанр: драма, мелодрама
Страна: США
Режиссер: Теренс Дэвис
В ролях: Рейчел Вайс, Том Хиддлстон, Саймон Расселл Бил, Энн Митчел, Жолион Цой, Карл Джонсон, Гарри Хадден-Патон, Сара Кэнтс, Оливер Форд Дэвис, Барбара Джеффорд
Сюжет фильма:
Экранизация пьесы Теренса Рэттигана. Лондон 1950-х. История разрушительной любви Хестер, женщины средних лет, покинувшей респектабельного мужа-судью ради молодого пилота королевских ВВС.

  • Мировая премьера: 11 сентября 2011

/
Качество видео: HDRip

Продолжительность: 01:38:21

Формат: avi
Видео: XviD, 720x384, 1658 kbps
Аудио: русский, многоголосый закадровый [любительский, den904 и DeadSno], AC3 5.1, 448 kbps

Код:

General
Complete name                    : D:\Video\Sources\Glubokoe.sinee.more.2011.XviD.HDRip.avi
Format                           : AVI
Format/Info                      : Audio Video Interleave
File size                        : 1.45 GiB
Duration                         : 1h 38mn
Overall bit rate                 : 2 116 Kbps
Movie name                       : The Deep Blue Sea (2011)
Writing application              : VirtualDubMod 1.5.10.2 (build 2540/release)
Writing library                  : VirtualDubMod build 2540/release
Copyright                        : ed_rez

Video
ID                               : 0
Format                           : MPEG-4 Visual
Format profile                   : Streaming Video@L1
Format settings, BVOP            : Yes
Format settings, QPel            : No
Format settings, GMC             : No warppoints
Format settings, Matrix          : Custom
Muxing mode                      : Packed bitstream
Codec ID                         : XVID
Codec ID/Hint                    : XviD
Duration                         : 1h 38mn
Bit rate                         : 1 659 Kbps
Width                            : 720 pixels
Height                           : 384 pixels
Display aspect ratio             : 1.875
Frame rate                       : 24.000 fps
Resolution                       : 24 bits
Colorimetry                      : 4:2:0
Scan type                        : Progressive
Bits/(Pixel*Frame)               : 0.250
Stream size                      : 1.14 GiB (78%)
Writing library                  : XviD 1.2.1 (UTC 2008-12-04)

Audio
ID                               : 1
Format                           : AC-3
Format/Info                      : Audio Coding 3
Codec ID                         : 2000
Duration                         : 1h 38mn
Bit rate mode                    : Constant
Bit rate                         : 448 Kbps
Channel(s)                       : 6 channels
Channel positions                : Front: L C R, Surround: L R, LFE
Sampling rate                    : 48.0 KHz
Stream size                      : 315 MiB (21%)
Alignment                        : Split accross interleaves
Interleave, duration             : 42 ms (1.00 video frame)
Interleave, preload duration     : 500 ms

Семпл: http://multi-up.com/712550

pic pic pic
Для увеличения картинки щелкните мышкой по превью

Этот торрент недоступен для скачивания без регистрации, однако доступен по публичной magnet-ссылке (источники с публичных трекеров). Перед использованием ссылки прочтите, пожалуйста Пользовательское соглашение, а также как можно дольше оставайтесь на раздаче! Для того, чтобы скачать сам торрент-файл (который видит больше источников), а также для того, чтобы поблагодарить релизера, вам необходимо зарегистрироваться. Если регистрироваться лень - вы можете также попробовать скачать релиз по нашим партнерским ссылкам ниже.

[underverse.su].t18150.torrent
Трекер: Зарегистрирован   [ 03.06.2012 10:58 ]  

Статус: проверено (by garry at 03.06.2012 15:21)
Поблагодарили: 2 человека
Тип торрента: публичный - доступные источники с открытых трекеров: 
Размер: 1,45 GB (занимает 1/3 DVDR, для записи нужно 1 болванка DVDR/RW)
 
 
Похожие темы
Форум Тема Автор Торрент Отв. Посл. сооб.
Зарубежное кино HQ Глубокое синее море / Deep Blue Sea (Ренни Харлин) [1999 г., фантастика, боевик, триллер, BDRip] Dub + DVO HQ Underverse HQ Underverse
0 | 0

0 | 1406

11

19.02.2013 05:30

RazumHak Пол:Муж

04-Июн-2012 12:09

Спасибо :)

Яндекс.Метрика powered by Sphinx


В Н И М А Н И Е
Сайт не распространяет и не хранит электронные версии произведений, а лишь бесплатно и без коммерческой выгоды (не требуя взамен платы,
SMS и т.д.) предоставляет доступ к создаваемому пользователями каталогу ссылок на торрент-файлы, которые содержат только списки хеш-сумм.
Убедительная просьба с жалобами обращаться напрямую к пользователю, разместившему торрент файл.

Вверх