Loading...
Error

Поймать, чтобы убить / Hunt to Kill (Киони Ваксман) [2010 г., боевик, триллер, HDRip]

Статистика раздачи
Размер:  1,46 GB   |    Зарегистрирован:  4 года 6 месяцев   |    Скачан:  3 раза

Полного источника не было: 1 год 1 месяц

Сидов:  0  |  0 KB/s  ]   Личеров:  0  |  0 KB/s  ]

* - сиды/пиры с внешних источников

   
 
Автор Сообщение

RG NewCinema 

03-Июн-2012 10:39

Поймать, чтобы убить / Hunt to Kill


Год выпуска: 2010
Жанр: боевик, триллер
Страна: Канада
Режиссер: Киони Ваксман
В ролях: Стив Остин, Джил Беллоуз, Гэри Дэниелс, Мари Авгеропулос, Эрик Робертс, Эмили Уллерап, Майкл Эклунд, Доннелли Роудс, Майкл Хоган, Адриан Холмс
Сюжет фильма:
Джим Родс агент патрульной службы, который провел большую часть карьеры, находясь на опасных участках границы Техаса и Мексики. Он переезжает в горы Монтаны, где, казалось бы, менее опасные границы между живописным штатом и Канадой. Жизнь в горах позволяет ему совершенствовать свои навыки выживания и наслаждаться жизнью и безопасностью со своей дочерью-подростком. Или так он думал?..

  • Мировая премьера: 11 октября 2010

/
Качество видео: HDRip

Продолжительность: 01:33:09

Формат: avi
Видео: XviD, 720x400, 1838 kbps
Аудио #1: русский, многоголосый закадровый [профессиональный, студия NLS], AC3 2.0, 192 kbps
Аудио #2: английский, оригинал, AC3 2.0, 192 kbps

Код:

General
Complete name                    : D:\Video\Sources\Pojmat.4toby.Ubit.HDRip.2010.avi
Format                           : AVI
Format/Info                      : Audio Video Interleave
File size                        : 1.46 GiB
Duration                         : 1h 33mn
Overall bit rate                 : 2 237 Kbps
Movie name                       : Pojmat'.4toby.Ubit'.2010
Original source form/Distributed : Hunt.To.Kill.chopper887.avi
Genre                            : Action
Copyright                        : 25KADR

Video
ID                               : 0
Format                           : MPEG-4 Visual
Format profile                   : Streaming Video@L1
Format settings, BVOP            : Yes
Format settings, QPel            : No
Format settings, GMC             : No warppoints
Format settings, Matrix          : Custom
Codec ID                         : XVID
Codec ID/Hint                    : XviD
Duration                         : 1h 33mn
Bit rate                         : 1 838 Kbps
Width                            : 720 pixels
Height                           : 400 pixels
Display aspect ratio             : 16/9
Frame rate                       : 25.000 fps
Original frame rate              : 23.976 fps
Resolution                       : 24 bits
Colorimetry                      : 4:2:0
Scan type                        : Progressive
Bits/(Pixel*Frame)               : 0.255
Stream size                      : 1.20 GiB (82%)
Writing library                  : XviD 1.2.1 (UTC 2008-12-04)

Audio #1
ID                               : 1
Format                           : AC-3
Format/Info                      : Audio Coding 3
Codec ID                         : 2000
Duration                         : 1h 33mn
Bit rate mode                    : Constant
Bit rate                         : 192 Kbps
Channel(s)                       : 2 channels
Channel positions                : L R
Sampling rate                    : 48.0 KHz
Stream size                      : 128 MiB (9%)
Alignment                        : Split accross interleaves
Interleave, duration             : 40 ms (1.00 video frame)
Interleave, preload duration     : 500 ms
Language                         : 1. Russian   2. English

Audio #2
ID                               : 2
Format                           : AC-3
Format/Info                      : Audio Coding 3
Codec ID                         : 2000
Duration                         : 1h 33mn
Bit rate mode                    : Constant
Bit rate                         : 192 Kbps
Channel(s)                       : 2 channels
Channel positions                : L R
Sampling rate                    : 48.0 KHz
Stream size                      : 128 MiB (9%)
Alignment                        : Split accross interleaves
Interleave, duration             : 40 ms (1.00 video frame)
Interleave, preload duration     : 500 ms

Семпл: http://multi-up.com/712725

pic pic pic
Для увеличения картинки щелкните мышкой по превью

Этот торрент недоступен для скачивания без регистрации, однако доступен по публичной magnet-ссылке (источники с публичных трекеров). Перед использованием ссылки прочтите, пожалуйста Пользовательское соглашение, а также как можно дольше оставайтесь на раздаче! Для того, чтобы скачать сам торрент-файл (который видит больше источников), а также для того, чтобы поблагодарить релизера, вам необходимо зарегистрироваться. Если регистрироваться лень - вы можете также попробовать скачать релиз по нашим партнерским ссылкам ниже.

[underverse.su].t18148.torrent
Трекер: Зарегистрирован   [ 03.06.2012 10:39 ]  

Статус: проверено (by garry at 03.06.2012 15:21)
Поблагодарили: пока никто не поблагодарил...
Тип торрента: публичный - доступные источники с открытых трекеров: 
Размер: 1,46 GB (занимает 1/3 DVDR, для записи нужно 1 болванка DVDR/RW)
 
 

Яндекс.Метрика powered by Sphinx


В Н И М А Н И Е
Сайт не распространяет и не хранит электронные версии произведений, а лишь бесплатно и без коммерческой выгоды (не требуя взамен платы,
SMS и т.д.) предоставляет доступ к создаваемому пользователями каталогу ссылок на торрент-файлы, которые содержат только списки хеш-сумм.
Убедительная просьба с жалобами обращаться напрямую к пользователю, разместившему торрент файл.

Вверх