Loading...
Error

Адский бункер: Черное Солнце / Outpost: Black Sun (Стив Баркер) [2012 г., ужасы, боевик, HDRip] L1 от Xixidok

Статистика раздачи
Размер:  1,27 GB   |    Зарегистрирован:  4 года 6 месяцев   |    Скачан:  33 раза

Полного источника не было: 2 года 1 месяц

Сидов:  0  |  0 KB/s  ]   Личеров:  0  |  0 KB/s  ]

* - сиды/пиры с внешних источников

   
 
Автор Сообщение

RG NewCinema 

02-Июн-2012 18:25

Адский бункер: Черное Солнце / Outpost: Black Sun


Год выпуска: 2012
Жанр: ужасы, боевик
Страна: Великобритания
Режиссер: Стив Баркер
В ролях: Катрин Стэдмен, Ричард Койл, Али Крэйг, Ник Неверн, Даниэль Кальтаджироне, Гари МакДональд, Domenic Pontone, Джон П. Арнольд, Филип Бэррэтт, Мартин Белл
Сюжет фильма:
Научные разработки, которые велись немцами во время Второй мировой войны, по созданию бессмертных солдат не прошли даром. Уже в наши дни бойцы НАТО сталкиваются с батальоном зомби-солдат нацистской Германии из числа штурмовиков. Противостоять восставшим мертвецам практически невозможно, но еще более сложная задача стоит перед героями фильма найти и уничтожить источник воскрешающей армии, грозящей миру Четвёртым Рейхом.

  • Мировая премьера: 27 апреля 2012

/
Качество видео: HDRip

Продолжительность: 01:40:54

Формат: avi
Видео: XviD, 720x304, 1666 kbps
Аудио: русский, одноголосый закадровый [любительский, Хихикающий доктор по субтитрам МЕГАПЫХАРЬ], MP3 2.0, 128 kbps

Код:

General
Complete name                    : D:\Video\Sources\Outpost.2.Black.Sun.2012.Xixidok XviD.avi
Format                           : AVI
Format/Info                      : Audio Video Interleave
File size                        : 1.27 GiB
Duration                         : 1h 40mn
Overall bit rate                 : 1 804 Kbps
Writing application              : VirtualDubMod 1.5.10.3 (build 2550/release)
Writing library                  : VirtualDubMod build 2550/release

Video
ID                               : 0
Format                           : MPEG-4 Visual
Format profile                   : Streaming Video@L1
Format settings, BVOP            : Yes
Format settings, QPel            : No
Format settings, GMC             : No warppoints
Format settings, Matrix          : Default (H.263)
Codec ID                         : XVID
Codec ID/Hint                    : XviD
Duration                         : 1h 40mn
Bit rate                         : 1 667 Kbps
Width                            : 720 pixels
Height                           : 304 pixels
Display aspect ratio             : 2.35
Frame rate                       : 23.976 fps
Resolution                       : 24 bits
Colorimetry                      : 4:2:0
Scan type                        : Progressive
Bits/(Pixel*Frame)               : 0.318
Stream size                      : 1.17 GiB (92%)
Writing library                  : XviD 1.2.1 (UTC 2008-12-04)

Audio
ID                               : 1
Format                           : MPEG Audio
Format version                   : Version 1
Format profile                   : Layer 3
Codec ID                         : 55
Codec ID/Hint                    : MP3
Duration                         : 1h 40mn
Bit rate mode                    : Constant
Bit rate                         : 128 Kbps
Channel(s)                       : 2 channels
Sampling rate                    : 44.1 KHz
Resolution                       : 16 bits
Stream size                      : 92.4 MiB (7%)
Alignment                        : Split accross interleaves
Interleave, duration             : 42 ms (1.00 video frame)
Interleave, preload duration     : 500 ms

Семпл: http://multi-up.com/712526

Релиз группы:

pic pic pic
Для увеличения картинки щелкните мышкой по превью

Этот торрент недоступен для скачивания без регистрации, однако доступен по публичной magnet-ссылке (источники с публичных трекеров). Перед использованием ссылки прочтите, пожалуйста Пользовательское соглашение, а также как можно дольше оставайтесь на раздаче! Для того, чтобы скачать сам торрент-файл (который видит больше источников), а также для того, чтобы поблагодарить релизера, вам необходимо зарегистрироваться. Если регистрироваться лень - вы можете также попробовать скачать релиз по нашим партнерским ссылкам ниже.

[underverse.su].t18132.torrent
Трекер: Зарегистрирован   [ 02.06.2012 18:25 ]  

Статус: проверено (by garry at 02.06.2012 18:26)
Поблагодарили: 1 человек
Тип торрента: публичный - доступные источники с открытых трекеров: 
Размер: 1,27 GB (занимает 0,29 DVDR, для записи нужно 1 болванка DVDR/RW)
 
 
Похожие темы
Форум Тема Автор Торрент Отв. Посл. сооб.
Зарубежное кино [DVDRip, Low-Res HDRip, и т.д.] Адский бункер: Черное Солнце / Outpost: Black Sun (Стив Баркер) [2012 г., ужасы, боевик, HDRip] MVO RG NewCinema
3 | 0

0 | 1532

45

17.10.2012 23:27

Зарубежное кино [DVDRip, Low-Res HDRip, и т.д.] Адский бункер: Восстание спецназа / Outpost: Rise of the Spetsnaz (Киран Паркер) [2013 г., ужасы, боевик, DVDRip] VO Су-34
2 | 0

0 | 1444

34

26.10.2013 20:02

T Зарубежное кино [DVDRip, Low-Res HDRip, и т.д.] Адский бункер: Восстание спецназа / Outpost: Rise of the Spetsnaz (Киран Паркер / Kieran Parker) [2013 г., боевик, ужасы, фантастика, HDRip] MVO 90ytr90
3 | 0

0 | 692

41

15.01.2015 20:01

Зарубежное кино [HDDVDRip / BDRip / WEB-DL / HDTV 1080/720р] Адский бункер: Черное Солнце / Outpost: Black Sun(Стив Баркер ) [2012 г., ужасы, боевик , BDRip 720p] P.O.C.O.X.A
1 | 0

2 | 1647

22

19.10.2012 07:11

Зарубежное кино [HDDVDRip / BDRip / WEB-DL / HDTV 1080/720р] Адский бункер: Восстание спецназа / Outpost: Rise of the Spetsnaz (Киран Паркер / Kieran Parker) [2013 г., боевик, ужасы, фантастика, BDRip 720p] VO (den904) + Original + Sub (Eng) 90ytr90
0 | 0

1 | 1397

13

29.10.2013 14:25


Яндекс.Метрика powered by Sphinx


В Н И М А Н И Е
Сайт не распространяет и не хранит электронные версии произведений, а лишь бесплатно и без коммерческой выгоды (не требуя взамен платы,
SMS и т.д.) предоставляет доступ к создаваемому пользователями каталогу ссылок на торрент-файлы, которые содержат только списки хеш-сумм.
Убедительная просьба с жалобами обращаться напрямую к пользователю, разместившему торрент файл.

Вверх