Loading...
Error

Ошибка телохранителя / The Girl from the Naked Eye (Дэвид Рен) [2012 г., боевик, триллер, мелодрама, HDRip]

Статистика раздачи
Размер:  1,37 GB   |    Зарегистрирован:  4 года 6 месяцев   |    Скачан:  27 раз

Полного источника не было: 1 год 2 месяца

Сидов:  0  |  0 KB/s  ]   Личеров:  0  |  0 KB/s  ]

* - сиды/пиры с внешних источников

   
 
Автор Сообщение

RG NewCinema 

01-Июн-2012 20:36

Ошибка телохранителя / The Girl from the Naked Eye


Год выпуска: 2012
Жанр: боевик, триллер, мелодрама
Страна: США
Режиссер: Дэвид Рен
В ролях: Джейсон Йи, Саманта Стритс, Гари Стретч, Доминик Суэйн, Рон Йуан, Уилсон Жермен Эредия, Саша Грэй, Джерри Йинг, Джеймс Лью, Пит Антико
Сюжет фильма:
Сэнди, работающая по вызову в ночном клубе "Голый глаз", нанимает телохранителя Джейка. Когда Джейк находит её мёртвой в своей квартире, то начинает своё собственное расследование смерти Сэнди и начинает самую настоящую охоту на её убийц.

  • Мировая премьера: 3 февраля 2012

/
Качество видео: HDRip

Продолжительность: 01:23:41

Формат: avi
Видео: XviD, 720x304, 1944 kbps
Аудио: русский, многоголосый закадровый [профессиональный], AC3 5.1, 384 kbps

Код:

General
Complete name                    : D:\Video\Sources\Oshibka.telohranitelja.2011.P.HDRip.1400Mb.avi
Format                           : AVI
Format/Info                      : Audio Video Interleave
File size                        : 1.37 GiB
Duration                         : 1h 23mn
Overall bit rate                 : 2 338 Kbps
Movie name                       : Oshibka.telohranitelja.2011.P.HDRip.1400Mb.IRONCLUB
Director                         : IronClub.TV
Writing application              : VirtualDubMod 1.5.10.2 (build 2540/release)

Video
ID                               : 0
Format                           : MPEG-4 Visual
Format profile                   : Streaming Video@L1
Format settings, BVOP            : Yes
Format settings, QPel            : No
Format settings, GMC             : No warppoints
Format settings, Matrix          : Custom
Codec ID                         : XVID
Codec ID/Hint                    : XviD
Duration                         : 1h 23mn
Bit rate                         : 1 945 Kbps
Width                            : 720 pixels
Height                           : 304 pixels
Display aspect ratio             : 2.35
Frame rate                       : 23.976 fps
Resolution                       : 24 bits
Colorimetry                      : 4:2:0
Scan type                        : Progressive
Bits/(Pixel*Frame)               : 0.371
Stream size                      : 1.14 GiB (83%)
Writing library                  : XviD 1.2.1 (UTC 2008-12-04)

Audio
ID                               : 1
Format                           : AC-3
Format/Info                      : Audio Coding 3
Codec ID                         : 2000
Duration                         : 1h 23mn
Bit rate mode                    : Constant
Bit rate                         : 384 Kbps
Channel(s)                       : 6 channels
Channel positions                : Front: L C R, Surround: L R, LFE
Sampling rate                    : 48.0 KHz
Stream size                      : 230 MiB (16%)
Alignment                        : Split accross interleaves
Interleave, duration             : 42 ms (1.00 video frame)
Interleave, preload duration     : 500 ms

Семпл: http://multi-up.com/712131

pic pic pic
Для увеличения картинки щелкните мышкой по превью

Этот торрент недоступен для скачивания без регистрации, однако доступен по публичной magnet-ссылке (источники с публичных трекеров). Перед использованием ссылки прочтите, пожалуйста Пользовательское соглашение, а также как можно дольше оставайтесь на раздаче! Для того, чтобы скачать сам торрент-файл (который видит больше источников), а также для того, чтобы поблагодарить релизера, вам необходимо зарегистрироваться. Если регистрироваться лень - вы можете также попробовать скачать релиз по нашим партнерским ссылкам ниже.

[underverse.su].t18127.torrent
Трекер: Зарегистрирован   [ 01.06.2012 20:36 ]  

Статус: проверено (by Паукан at 01.06.2012 22:29)
Поблагодарили: 2 человека
Тип торрента: публичный - доступные источники с открытых трекеров: 
Размер: 1,37 GB (занимает 0,31 DVDR, для записи нужно 1 болванка DVDR/RW)
 
 

Яндекс.Метрика powered by Sphinx


В Н И М А Н И Е
Сайт не распространяет и не хранит электронные версии произведений, а лишь бесплатно и без коммерческой выгоды (не требуя взамен платы,
SMS и т.д.) предоставляет доступ к создаваемому пользователями каталогу ссылок на торрент-файлы, которые содержат только списки хеш-сумм.
Убедительная просьба с жалобами обращаться напрямую к пользователю, разместившему торрент файл.

Вверх