Loading...
Error

Вспомнить всё / Total Recall (Пол Верховен) [1990 г., фантастика, боевик, триллер, приключения, HDRip] (Rus, Ukr, Eng) HQ Underverse

Статистика раздачи
Размер:  2,98 GB   |    Зарегистрирован:  4 года 6 месяцев   |    Скачан:  21 раз

Полного источника не было: 27 дней

Сидов:  0  |  0 KB/s  ]   Личеров:  0  |  0 KB/s  ]

* - сиды/пиры с внешних источников

   
 
Автор Сообщение

HQ Underverse 

01-Июн-2012 16:04

Вспомнить всё / Total Recall


Год выпуска: 1990
Жанр: фантастика, боевик, триллер, приключения
Страна: США
Режиссер: Пол Верховен
В ролях: Арнольд Шварценеггер, Шэрон Стоун, Рейчел Тикотин, Ронни Кокс, Майкл Айронсайд, Маршалл Белл, Мэл Джонсон мл., Майкл Чэмпион, Рой Броксмит, Рэй Бэйкер
Сюжет фильма:
В 2048 году жизнь простого рабочего парня Дага Куэйда скучна и однообразна. Поэтому, чтобы хоть как-то поразвлечься, он решает воспользоваться услугами некой компании, которая за определенную плату посылает в его мозг импульсы, создающие полную иллюзию того, что он другой человек, живущий другой, интересной жизнью.

Всё бы хорошо, но после сеанса Дагу совершенно невозможно понять, кто же он на самом деле простой работяга или спецназовец, владеющий всеми видами оружия и боевых искусств. Его боятся, его хотят убить, на него открыт сезон охоты; даже любимая жена пытается свернуть ему шею. Теперь, чтобы выжить, ему необходимо вспомнить, вспомнить всё.

  • Мировая премьера: 1 июня 1990

|
Качество видео: HDRip

Продолжительность: 01:53:33

Формат: avi
Видео: XviD, 704x384, 2337 kbps
Аудио #1: русский, многоголосый закадровый [профессиональный, R5], AC3 5.1, 384 kbps
Аудио #2: русский, многоголосый закадровый [профессиональный, SUPERBIT], AC3 5.1, 384 kbps (отдельным файлом)
Аудио #3: английский, оригинал, AC3 5.1, 384 kbps (отдельным файлом)
Аудио #4: украинский, многоголосый закадровый [профессиональный], AC3 2.0, 256 kbps (отдельным файлом)

Субтитры #1: внешние, SRT, английский
Субтитры #2: внешние, SRT, русский

Код:

General
Complete name                    : D:\Video\HQ-Rips\Вспомнить все\Total.Recall.1990.HDRip.XviD.AC3.Rus.P.HQ.Underverse.avi
Format                           : AVI
Format/Info                      : Audio Video Interleave
Format profile                   : OpenDML
File size                        : 2.17 GiB
Duration                         : 1h 53mn
Overall bit rate                 : 2 733 Kbps
Writing application              : VirtualDubMod 1.5.10.2 (build 2542/release)
Writing library                  : VirtualDubMod build 2542/release

Video
ID                               : 0
Format                           : MPEG-4 Visual
Format profile                   : Streaming Video@L1
Format settings, BVOP            : Yes
Format settings, QPel            : No
Format settings, GMC             : No warppoints
Format settings, Matrix          : Custom
Muxing mode                      : Packed bitstream
Codec ID                         : XVID
Codec ID/Hint                    : XviD
Duration                         : 1h 53mn
Bit rate                         : 2 337 Kbps
Width                            : 704 pixels
Height                           : 384 pixels
Display aspect ratio             : 16/9
Frame rate                       : 23.976 fps
Resolution                       : 24 bits
Colorimetry                      : 4:2:0
Scan type                        : Progressive
Bits/(Pixel*Frame)               : 0.361
Stream size                      : 1.85 GiB (86%)
Writing library                  : XviD 64

Audio
ID                               : 1
Format                           : AC-3
Format/Info                      : Audio Coding 3
Codec ID                         : 2000
Duration                         : 1h 53mn
Bit rate mode                    : Constant
Bit rate                         : 384 Kbps
Channel(s)                       : 6 channels
Channel positions                : Front: L C R, Surround: L R, LFE
Sampling rate                    : 48.0 KHz
Stream size                      : 312 MiB (14%)
Alignment                        : Split accross interleaves
Interleave, duration             : 42 ms (1.00 video frame)
Interleave, preload duration     : 500 ms

Релиз группы:

pic pic pic
Для увеличения картинки щелкните мышкой по превью

Этот торрент недоступен для скачивания без регистрации, однако доступен по публичной magnet-ссылке (источники с публичных трекеров). Перед использованием ссылки прочтите, пожалуйста Пользовательское соглашение, а также как можно дольше оставайтесь на раздаче! Для того, чтобы скачать сам торрент-файл (который видит больше источников), а также для того, чтобы поблагодарить релизера, вам необходимо зарегистрироваться. Если регистрироваться лень - вы можете также попробовать скачать релиз по нашим партнерским ссылкам ниже.

[underverse.su].t18123.torrent
Трекер: Зарегистрирован   [ 01.06.2012 16:04 ]  

Статус: проверено (by HQ Underverse at 01.06.2012 16:04)
Поблагодарили: 5 человек
Тип торрента: публичный - доступные источники с открытых трекеров: 
Размер: 2,98 GB (занимает 0,68 DVDR, для записи нужно 1 болванка DVDR/RW)
 
 
Похожие темы
Форум Тема Автор Торрент Отв. Посл. сооб.
Зарубежное кино [DVDRip, Low-Res HDRip, и т.д.] Вспомнить все / Total Recall (Пол Верховен / Paul Verhoeven) [1990 г., Фантастика, Боевик, BDRip] MVO Dmitriy
25 | 0

1 | 2913

7

06.05.2014 14:40

Зарубежное кино [DVDRip, Low-Res HDRip, и т.д.] Вспомнить всё / Total Recall (Лен Уайзман) [2012 г., фантастика, боевик, триллер, приключения, DVDRip] Dub + Original RG NewCinema
2 | 2

3 | 1825

201

12.07.2013 16:36

Зарубежное кино [DVDRip, Low-Res HDRip, и т.д.] Вспомнить всё / Total Recall (Лен Уайзман) [2012 г., Фантастика, боевик, триллер, приключения, DVDRip] Dub [Лицензия] 90ytr90
5 | 0

2 | 955

113

11.11.2012 09:15

Зарубежное кино [DVDRip, Low-Res HDRip, и т.д.] Вспомнить всё / Total Recall (Лен Уайзман) [2012 г., фантастика, боевик, триллер, приключения, HDRip] Dub RG NewCinema
1 | 0

0 | 1128

109

09.11.2012 06:45

Зарубежное кино [DVDRip, Low-Res HDRip, и т.д.] Вспомнить всё / Total Recall (Лен Уайзман / Len Wiseman) [2012 г., фантастика, боевик, триллер, приключения, BDRip-AVC] [Extended Cut] Dub + Sub Rus] саня86
0 | 0

0 | 1333

24

16.11.2012 09:37

Зарубежное кино [DVDRip, Low-Res HDRip, и т.д.] Вспомнить всё / Total Recall (Лен Уайзман) [2012 г., фантастика, боевик, триллер, HDRip][Extended Cut] VO [zamez] NiiggazCPT
1 | 0

1 | 713

39

27.11.2012 12:52

Зарубежное кино [HDDVDRip / BDRip / WEB-DL / HDTV 1080/720р] Вспомнить всё / Total Recall (Лен Уайзман) [2012 г., фантастика, боевик, триллер, приключения, BDRip 720p] Dub + 3xOriginal Garnett
1 | 0

0 | 1238

35

10.11.2012 07:23

Зарубежное кино [HDDVDRip / BDRip / WEB-DL / HDTV 1080/720р] Вспомнить всё / Total Recall (Лен Уайзман) [2012 г., Фантастика, Боевик, Триллер, BDRip 1080p] Dub Чертёнок
7 | 4

1 | 966

20

03.08.2013 16:17

Зарубежное кино [HDDVDRip / BDRip / WEB-DL / HDTV 1080/720р] Вспомнить всё / Total Recall (Лен Уайзман / Len Wiseman) [2012 г., фантастика, боевик, триллер, приключения, BDRip 720p] [Extended Cut] Dub + Subs 90ytr90
5 | 1

0 | 1536

27

03.11.2013 11:56


Яндекс.Метрика powered by Sphinx


В Н И М А Н И Е
Сайт не распространяет и не хранит электронные версии произведений, а лишь бесплатно и без коммерческой выгоды (не требуя взамен платы,
SMS и т.д.) предоставляет доступ к создаваемому пользователями каталогу ссылок на торрент-файлы, которые содержат только списки хеш-сумм.
Убедительная просьба с жалобами обращаться напрямую к пользователю, разместившему торрент файл.

Вверх