Loading...
Error

Назад в будущее. Трилогия / Back to the Future. Trilogy (Роберт Земекис) [1985-1990 г., фантастика, комедия, приключения, HDRip] (Rus, Ukr, Eng) HQ Underverse

Статистика раздачи
Размер:  9,56 GB   |    Зарегистрирован:  4 года 6 месяцев   |    Скачан:  36 раз
Сидов:  2  |  0 KB/s  ]   Личеров:  2  |  0 KB/s  ]

* - сиды/пиры с внешних источников

   
 
Автор Сообщение

HQ Underverse 

31-Май-2012 01:17

Назад в будущее / Back to the Future


Год выпуска: 1985
Жанр: фантастика, комедия, приключения
Страна: США
Режиссер: Роберт Земекис
В ролях: Майкл Дж. Фокс, Кристофер Ллойд, Лиа Томпсон, Криспин Гловер, Томас Ф. Уилсон, Клодия Уэллс, Марк МакКлюр, Уэнди Джо Спербер, Джордж ДиЧенцо, Фрэнсис Ли МакКейн
Сюжет фильма:
Подросток Марти с помощью машины времени, сооруженной его другом профессором доком Брауном, попадает из 80-х в далекие 50-е. Там он встречается со своими будущими родителями, еще подростками, и другом-профессором, совсем молодым.
Он нарушает естественный ход событий прошлого, чем вызывает массу смешных и драматических ситуаций. Собственная смекалка и фантазия профессора помогают преодолеть все препятствия и благополучно вернуться к себе, в свое время.

  • Мировая премьера: 3 июля 1985

/
Качество видео: HDRip

Продолжительность: 01:56:01

Формат: avi
Видео: XviD, 704x384, 2214 kbps
Аудио #1: русский, дублированный [лицензия], AC3 5.1, 448 kbps
Аудио #2: русский, многоголосый закадровый [профессиональный], AC3 5.1, 448 kbps (отдельным файлом)
Аудио #3: украинский, многоголосый закадровый [профессиональный], AC3 5.1, 384 kbps (отдельным файлом)
Аудио #4: английский, оригинал, AC3 5.1, 448 kbps (отдельным файлом)

Субтитры #1: внешние, SRT, английский
Субтитры #2: внешние, SRT, русский
Субтитры #3: внешние, SRT, русский (форсированные)

Код:

General
Complete name                    : D:\Video\HQ-Rips\Назад в будущее\1\Back.To.The.Future.1985.HDRip.XviD.AC3.Rus.D.HQ.Underverse.avi
Format                           : AVI
Format/Info                      : Audio Video Interleave
Format profile                   : OpenDML
File size                        : 2.17 GiB
Duration                         : 1h 56mn
Overall bit rate                 : 2 675 Kbps
Writing application              : VirtualDubMod 1.5.10.2 (build 2542/release)
Writing library                  : VirtualDubMod build 2542/release

Video
ID                               : 0
Format                           : MPEG-4 Visual
Format profile                   : Streaming Video@L1
Format settings, BVOP            : Yes
Format settings, QPel            : No
Format settings, GMC             : No warppoints
Format settings, Matrix          : Custom
Muxing mode                      : Packed bitstream
Codec ID                         : XVID
Codec ID/Hint                    : XviD
Duration                         : 1h 56mn
Bit rate                         : 2 215 Kbps
Width                            : 704 pixels
Height                           : 384 pixels
Display aspect ratio             : 16/9
Frame rate                       : 23.976 fps
Resolution                       : 24 bits
Colorimetry                      : 4:2:0
Scan type                        : Progressive
Bits/(Pixel*Frame)               : 0.342
Stream size                      : 1.79 GiB (83%)
Writing library                  : XviD 64

Audio
ID                               : 1
Format                           : AC-3
Format/Info                      : Audio Coding 3
Codec ID                         : 2000
Duration                         : 1h 56mn
Bit rate mode                    : Constant
Bit rate                         : 448 Kbps
Channel(s)                       : 6 channels
Channel positions                : Front: L C R, Surround: L R, LFE
Sampling rate                    : 48.0 KHz
Stream size                      : 372 MiB (17%)
Alignment                        : Split accross interleaves
Interleave, duration             : 42 ms (1.00 video frame)
Interleave, preload duration     : 500 ms

Релиз группы:

pic pic pic
Для увеличения картинки щелкните мышкой по превью




Назад в будущее 2 / Back to the Future Part II


Год выпуска: 1989
Жанр: фантастика, боевик, комедия, приключения, семейный
Страна: США
Режиссер: Роберт Земекис
В ролях: Майкл Дж. Фокс, Кристофер Ллойд, Лиа Томпсон, Томас Ф. Уилсон, Элизабет Шу, Джеймс Толкан, Джеффри Вайсман, Кэйси Семашко, Билли Зейн, Дж.Дж. Коэн
Сюжет фильма:
Продолжение фантастической истории о приключениях американского подростка во времени. На этот раз с помощью модернизированной Доком машины времени Марти из 80-х попадает в будущее. Дети Марти в беде, и их надо выручать. Приходится повозиться со злодеем...

  • Мировая премьера: 20 ноября 1989

/
Качество видео: HDRip

Продолжительность: 01:47:59

Формат: avi
Видео: XviD, 704x384, 2411 kbps
Аудио #1: русский, дублированный [лицензия], AC3 5.1, 448 kbps
Аудио #2: русский, многоголосый закадровый [профессиональный], AC3 5.1, 448 kbps (отдельным файлом)
Аудио #3: украинский, многоголосый закадровый [профессиональный], AC3 5.1, 384 kbps (отдельным файлом)
Аудио #4: английский, оригинал, AC3 5.1, 448 kbps (отдельным файлом)

Субтитры #1: внешние, SRT, английский
Субтитры #2: внешние, SRT, русский
Субтитры #3: внешние, SRT, русский (форсированные)

Код:

General
Complete name                    : D:\Video\HQ-Rips\Назад в будущее\2\Back.To.The.Future.II.1989.HDRip.XviD.AC3.Rus.D.HQ.Underverse.avi
Format                           : AVI
Format/Info                      : Audio Video Interleave
Format profile                   : OpenDML
File size                        : 2.17 GiB
Duration                         : 1h 47mn
Overall bit rate                 : 2 871 Kbps
Writing application              : VirtualDubMod 1.5.10.2 (build 2542/release)
Writing library                  : VirtualDubMod build 2542/release

Video
ID                               : 0
Format                           : MPEG-4 Visual
Format profile                   : Streaming Video@L1
Format settings, BVOP            : Yes
Format settings, QPel            : No
Format settings, GMC             : No warppoints
Format settings, Matrix          : Custom
Muxing mode                      : Packed bitstream
Codec ID                         : XVID
Codec ID/Hint                    : XviD
Duration                         : 1h 47mn
Bit rate                         : 2 411 Kbps
Width                            : 704 pixels
Height                           : 384 pixels
Display aspect ratio             : 16/9
Frame rate                       : 23.976 fps
Resolution                       : 24 bits
Colorimetry                      : 4:2:0
Scan type                        : Progressive
Bits/(Pixel*Frame)               : 0.372
Stream size                      : 1.82 GiB (84%)
Writing library                  : XviD 64

Audio
ID                               : 1
Format                           : AC-3
Format/Info                      : Audio Coding 3
Codec ID                         : 2000
Duration                         : 1h 47mn
Bit rate mode                    : Constant
Bit rate                         : 448 Kbps
Channel(s)                       : 6 channels
Channel positions                : Front: L C R, Surround: L R, LFE
Sampling rate                    : 48.0 KHz
Stream size                      : 346 MiB (16%)
Alignment                        : Split accross interleaves
Interleave, duration             : 42 ms (1.00 video frame)
Interleave, preload duration     : 500 ms

Релиз группы:

pic pic pic
Для увеличения картинки щелкните мышкой по превью




Назад в будущее 3 / Back to the Future Part III


Год выпуска: 1990
Жанр: фантастика, комедия, приключения, вестерн
Страна: США
Режиссер: Роберт Земекис
В ролях: Майкл Дж. Фокс, Кристофер Ллойд, Мэри Стинберген, Томас Ф. Уилсон, Лиа Томпсон, Элизабет Шу, Джеймс Толкан, Мэтт Кларк, Даб Тейлор, Гарри Кэри мл.
Сюжет фильма:
Из газет 1955 года Марти узнает, что доктор Браун погиб еще сто лет назад. Несмотря на просьбы Дока не навещать его в XIX веке, Марти вновь хочет вмешаться в ход событий и на машине времени уносится в 1885 год, навстречу Дикому Западу. Это путешествие, как и все прежние, не обходится без опасных приключений, но смелый Марти, рискуя жизнью, предотвращает трагедию в жизни Эммета Брауна. Тот, в свою очередь, без памяти влюбляется в очаровательную незнакомку, которую спасает от гибели, и поездка домой в будущее теряет для него всякий смысл...

  • Мировая премьера: 25 мая 1990

/
Качество видео: HDRip

Продолжительность: 01:58:17

Формат: avi
Видео: XviD, 704x384, 2160 kbps
Аудио #1: русский, дублированный [лицензия], AC3 5.1, 448 kbps
Аудио #2: русский, многоголосый закадровый [профессиональный], AC3 5.1, 448 kbps (отдельным файлом)
Аудио #3: украинский, многоголосый закадровый [профессиональный], AC3 5.1, 384 kbps (отдельным файлом)
Аудио #4: английский, оригинал, AC3 5.1, 448 kbps (отдельным файлом)

Субтитры #1: внешние, SRT, английский
Субтитры #2: внешние, SRT, русский
Субтитры #3: внешние, SRT, русский (форсированные)

Код:

General
Complete name                    : D:\Video\HQ-Rips\Назад в будущее\3\Back.To.The.Future.III.1990.HDRip.XviD.AC3.Rus.D.HQ.Underverse.avi
Format                           : AVI
Format/Info                      : Audio Video Interleave
Format profile                   : OpenDML
File size                        : 2.17 GiB
Duration                         : 1h 58mn
Overall bit rate                 : 2 621 Kbps
Writing application              : VirtualDubMod 1.5.10.2 (build 2542/release)
Writing library                  : VirtualDubMod build 2542/release

Video
ID                               : 0
Format                           : MPEG-4 Visual
Format profile                   : Streaming Video@L1
Format settings, BVOP            : Yes
Format settings, QPel            : No
Format settings, GMC             : No warppoints
Format settings, Matrix          : Custom
Muxing mode                      : Packed bitstream
Codec ID                         : XVID
Codec ID/Hint                    : XviD
Duration                         : 1h 58mn
Bit rate                         : 2 161 Kbps
Width                            : 704 pixels
Height                           : 384 pixels
Display aspect ratio             : 16/9
Frame rate                       : 23.976 fps
Resolution                       : 24 bits
Colorimetry                      : 4:2:0
Scan type                        : Progressive
Bits/(Pixel*Frame)               : 0.333
Stream size                      : 1.79 GiB (82%)
Writing library                  : XviD 64

Audio
ID                               : 1
Format                           : AC-3
Format/Info                      : Audio Coding 3
Codec ID                         : 2000
Duration                         : 1h 58mn
Bit rate mode                    : Constant
Bit rate                         : 448 Kbps
Channel(s)                       : 6 channels
Channel positions                : Front: L C R, Surround: L R, LFE
Sampling rate                    : 48.0 KHz
Stream size                      : 379 MiB (17%)
Alignment                        : Split accross interleaves
Interleave, duration             : 42 ms (1.00 video frame)
Interleave, preload duration     : 500 ms

Релиз группы:

pic pic pic
Для увеличения картинки щелкните мышкой по превью

Этот торрент недоступен для скачивания без регистрации, однако доступен по публичной magnet-ссылке (источники с публичных трекеров). Перед использованием ссылки прочтите, пожалуйста Пользовательское соглашение, а также как можно дольше оставайтесь на раздаче! Для того, чтобы скачать сам торрент-файл (который видит больше источников), а также для того, чтобы поблагодарить релизера, вам необходимо зарегистрироваться. Если регистрироваться лень - вы можете также попробовать скачать релиз по нашим партнерским ссылкам ниже.

[underverse.su].t18110.torrent
Трекер: Зарегистрирован   [ 31.05.2012 01:17 ]  

Статус: проверено (by Паукан at 31.05.2012 01:33)
Поблагодарили: 6 человек
Тип торрента: публичный - доступные источники с открытых трекеров: 
Размер: 9,56 GB (занимает 2,18 DVDR, для записи нужно 3 болванки DVDR/RW)
 
 
Похожие темы
Форум Тема Автор Торрент Отв. Посл. сооб.
Зарубежное кино [DVD / HDDVD / BD / Remux] Назад в будущее / Back to the future (Роберт Земекис ) [1985 г., фантастика, боевик, комедия, приключения, DVD-5] Dmitriy
0 | 0

18 | 4394

16

10.09.2011 13:51

Архив Назад в будущее. Трилогия / Back to the Future. Trilogy (Роберт Земекис) [1985 - 1990 г., фантастика, приключения, комедия, HDTVRip 720p] GUree
0 | 0

6 | 1868

3

09.10.2012 13:54

beemax69 

03-Окт-2012 15:29

с удовольствием переспотрю! СпасибО!

Абрамм 

14-Дек-2012 23:48

возьму в коллекцию

Яндекс.Метрика powered by Sphinx


В Н И М А Н И Е
Сайт не распространяет и не хранит электронные версии произведений, а лишь бесплатно и без коммерческой выгоды (не требуя взамен платы,
SMS и т.д.) предоставляет доступ к создаваемому пользователями каталогу ссылок на торрент-файлы, которые содержат только списки хеш-сумм.
Убедительная просьба с жалобами обращаться напрямую к пользователю, разместившему торрент файл.

Вверх