Loading...
Error

Няньки (Ашот Кещян) [2012 г., комедия, HDRip]

Статистика раздачи
Размер:  1,46 GB   |    Зарегистрирован:  4 года 6 месяцев   |    Скачан:  64 раза

Полного источника не было: 1 год 10 месяцев

Сидов:  0  |  0 KB/s  ]   Личеров:  0  |  0 KB/s  ]

* - сиды/пиры с внешних источников

   
 
Автор Сообщение

RG NewCinema 

30-Май-2012 04:49

Няньки


Год выпуска: 2012
Жанр: комедия
Страна: Россия
Режиссер: Ашот Кещян
В ролях: Николай Наумов, Арарат Кещян, Людмила Артемьева, Аглая Шиловская, Лина Добророднова, Илья Костюков, Глеб Сердюков, Олеся Железняк, Дитер Брандекер, Майкл Бэрал
Сюжет фильма:
Валентина жесткая, хладнокровная владелица крупной туристической фирмы, которой предстоит решение сложной задачи в стране, где женщину, независимо от профессионализма, не может ждать успех в бизнесе Турции. На помощь она вызывает работников своего уральского филиала Диму и Мишу безынициативных лодырей, по несчастливой случайности оказавшихся единственными сотрудниками мужского пола.
Предполагаемый отпуск за границей оборачивается для безответственных весельчаков не только последним шансом доказать свою профпригодность и избежать позорного увольнения, но и представляет угрозу для здоровья и жизни: по роковому стечению обстоятельств Миша и Дима остаются один на один с тремя неуправляемыми детьми Валентины.
А, как известно, беда не приходит одна, поэтому, когда приезжает мама Валентины якобы присмотреть за внуками, задачи для молодых людей усложняются появлением практически еще одного ребенка, который требует за собой не меньшего присмотра, чем реальные дети. Теперь друзьям придется разбираться и с детьми, и с бабушкой, и с немецкими конкурентами, и все это в попытках не провалить судьбоносную сделку. Смогут ли наши герои справиться с заданием и завоевать расположение Валентины и ее детей?

  • Мировая премьера: 26 апреля 2012
  • Российская премьера: 26 апреля 2012, Каропрокат

Качество видео: HDRip

Продолжительность: 01:33:44

Формат: avi
Видео: XviD, 720x304, 1771 kbps
Аудио: русский, оригинал, AC3 5.1, 448 kbps

Код:

General
Complete name                    : D:\Video\Sources\Njanki.2012.O.HDRip.avi
Format                           : AVI
Format/Info                      : Audio Video Interleave
File size                        : 1.46 GiB
Duration                         : 1h 33mn
Overall bit rate                 : 2 228 Kbps
Writing application              : VirtualDubMod 1.5.10.3 | www.virtualdub-fr.org || (build 2550/release)

Video
ID                               : 0
Format                           : MPEG-4 Visual
Format profile                   : Streaming Video@L1
Format settings, BVOP            : Yes
Format settings, QPel            : No
Format settings, GMC             : No warppoints
Format settings, Matrix          : Custom
Codec ID                         : XVID
Codec ID/Hint                    : XviD
Duration                         : 1h 33mn
Bit rate                         : 1 771 Kbps
Width                            : 720 pixels
Height                           : 304 pixels
Display aspect ratio             : 2.35
Frame rate                       : 24.000 fps
Resolution                       : 24 bits
Colorimetry                      : 4:2:0
Scan type                        : Progressive
Bits/(Pixel*Frame)               : 0.337
Stream size                      : 1.16 GiB (79%)
Writing library                  : XviD 1.2.1 (UTC 2008-12-04)

Audio
ID                               : 1
Format                           : AC-3
Format/Info                      : Audio Coding 3
Codec ID                         : 2000
Duration                         : 1h 33mn
Bit rate mode                    : Constant
Bit rate                         : 448 Kbps
Channel(s)                       : 6 channels
Channel positions                : Front: L C R, Surround: L R, LFE
Sampling rate                    : 48.0 KHz
Stream size                      : 300 MiB (20%)
Alignment                        : Split accross interleaves
Interleave, duration             : 42 ms (1.00 video frame)
Interleave, preload duration     : 500 ms

Семпл: http://multi-up.com/710664
picpicpic
Для увеличения картинки щелкните мышкой по превью

Этот торрент недоступен для скачивания без регистрации, однако доступен по публичной magnet-ссылке (источники с публичных трекеров). Перед использованием ссылки прочтите, пожалуйста Пользовательское соглашение, а также как можно дольше оставайтесь на раздаче! Для того, чтобы скачать сам торрент-файл (который видит больше источников), а также для того, чтобы поблагодарить релизера, вам необходимо зарегистрироваться. Если регистрироваться лень - вы можете также попробовать скачать релиз по нашим партнерским ссылкам ниже.

[underverse.su].t18103.torrent
Трекер: Зарегистрирован   [ 30.05.2012 04:49 ]  

Статус: проверено (by garry at 30.05.2012 08:26)
Поблагодарили: пока никто не поблагодарил...
Тип торрента: публичный - доступные источники с открытых трекеров: 
Размер: 1,46 GB (занимает 1/3 DVDR, для записи нужно 1 болванка DVDR/RW)
 
 
Похожие темы
Форум Тема Автор Торрент Отв. Посл. сооб.
Наше кино [DVDRip, Low-Res HDRip, и т.д.] Няньки (Ашот Кещян) [2012 г., комедия, семейный, BDRip-AVC] TERRAN
0 | 0

0 | 956

24

31.03.2013 17:07

Наше кино HQ Няньки (Ашот Кещян) [2012 г., комедия, HDRip] HQ Underverse HQ Underverse
0 | 0

1 | 1135

40

28.03.2016 12:09


Яндекс.Метрика powered by Sphinx


В Н И М А Н И Е
Сайт не распространяет и не хранит электронные версии произведений, а лишь бесплатно и без коммерческой выгоды (не требуя взамен платы,
SMS и т.д.) предоставляет доступ к создаваемому пользователями каталогу ссылок на торрент-файлы, которые содержат только списки хеш-сумм.
Убедительная просьба с жалобами обращаться напрямую к пользователю, разместившему торрент файл.

Вверх