Loading...
Error

Дрянная девчонка / Dirty Girl (Абе Сильвия) [2010 г., драма, DVDRip]

Статистика раздачи
Размер:  1,37 GB   |    Зарегистрирован:  4 года 6 месяцев   |    Скачан:  9 раз

Полного источника не было: 16 дней

Сидов:  0  |  0 KB/s  ]   Личеров:  0  |  0 KB/s  ]

* - сиды/пиры с внешних источников

   
 
Автор Сообщение

RG NewCinema 

30-Май-2012 03:38

Дрянная девчонка / Dirty Girl


Год выпуска: 2010
Жанр: драма
Страна: США
Режиссер: Абе Сильвия
В ролях: Джуно Темпл, Милла Йовович, Джереми Дозье, Зэк Лэсри, Джонатан Славин, Марселла Ленц-Поуп, Уильям Хорвич, Гэри Граббс, Дебора Тикер, Натали Аменула
Сюжет фильма:
Это история забавной и немного странной дружбы между хулиганкой и прогульщицей Даниэль и чувствительным замкнутым геем Кларком. На дворе 1987 год, и они решают сбежать из скучной Оклахомы в Калифорнию на встречу своим мечтам. Дэниель надеется разыскать отца, которого никогда не видела, а Кларк, напротив, хочет спрятаться от своих родителей, которые угрожают отправить его в военную школу. В пути их, как водится, ожидает много приключений, благодаря которым они узнают цену истинной дружбы.

  • Мировая премьера: 12 сентября 2010

|
Качество видео: DVDRip

Продолжительность: 01:25:43

Формат: avi
Видео: XviD, 720x304, 1802 kbps
Аудио: русский, многоголосый закадровый (профессиональный), AC3 5.1, 384 kbps

Код:

General
Complete name                    : D:\Video\Sources\Dirty.Girl.2010.P.DVDRip.avi
Format                           : AVI
Format/Info                      : Audio Video Interleave
File size                        : 1.37 GiB
Duration                         : 1h 25mn
Overall bit rate                 : 2 285 Kbps
Movie name                       : Dirty.Girl.2010.P.DVDRip.IRONCLUB
Director                         : http://ironclub.tv/
Writing application              : VirtualDubMod 1.5.10.3 (build 2550/release)
Original source form/Name        : Movie

Video
ID                               : 0
Format                           : MPEG-4 Visual
Format profile                   : Streaming Video@L1
Format settings, BVOP            : Yes
Format settings, QPel            : No
Format settings, GMC             : No warppoints
Format settings, Matrix          : Custom
Codec ID                         : XVID
Codec ID/Hint                    : XviD
Duration                         : 1h 25mn
Bit rate                         : 1 802 Kbps
Width                            : 720 pixels
Height                           : 304 pixels
Display aspect ratio             : 2.35
Frame rate                       : 25.000 fps
Resolution                       : 24 bits
Colorimetry                      : 4:2:0
Scan type                        : Progressive
Bits/(Pixel*Frame)               : 0.329
Stream size                      : 1.08 GiB (79%)
Writing library                  : XviD 1.2.1 (UTC 2008-12-04)

Audio
ID                               : 1
Format                           : AC-3
Format/Info                      : Audio Coding 3
Codec ID                         : 2000
Duration                         : 1h 25mn
Bit rate mode                    : Constant
Bit rate                         : 384 Kbps
Channel(s)                       : 6 channels
Channel positions                : Front: L C R, Surround: L R, LFE
Sampling rate                    : 48.0 KHz
Video delay                      : 500ms
Stream size                      : 235 MiB (17%)
Alignment                        : Split accross interleaves

Семпл: http://multi-up.com/710102
picpicpic
Для увеличения картинки щелкните мышкой по превью

Этот торрент недоступен для скачивания без регистрации, однако доступен по публичной magnet-ссылке (источники с публичных трекеров). Перед использованием ссылки прочтите, пожалуйста Пользовательское соглашение, а также как можно дольше оставайтесь на раздаче! Для того, чтобы скачать сам торрент-файл (который видит больше источников), а также для того, чтобы поблагодарить релизера, вам необходимо зарегистрироваться. Если регистрироваться лень - вы можете также попробовать скачать релиз по нашим партнерским ссылкам ниже.

[underverse.su].t18102.torrent
Трекер: Зарегистрирован   [ 30.05.2012 03:38 ]  

Статус: проверено (by garry at 30.05.2012 08:26)
Поблагодарили: пока никто не поблагодарил...
Тип торрента: публичный - доступные источники с открытых трекеров: 
Размер: 1,37 GB (занимает 0,31 DVDR, для записи нужно 1 болванка DVDR/RW)
 
 
Похожие темы
Форум Тема Автор Торрент Отв. Посл. сооб.
* Архив Дрянная девчонка / My Sassy Girl (2008) DVDRip (Ян Самюэль) [2008 г., комедия, мелодрама, драма, DVDRip] bokalchik

1 | 682

29.08.2010 23:52


Яндекс.Метрика powered by Sphinx


В Н И М А Н И Е
Сайт не распространяет и не хранит электронные версии произведений, а лишь бесплатно и без коммерческой выгоды (не требуя взамен платы,
SMS и т.д.) предоставляет доступ к создаваемому пользователями каталогу ссылок на торрент-файлы, которые содержат только списки хеш-сумм.
Убедительная просьба с жалобами обращаться напрямую к пользователю, разместившему торрент файл.

Вверх