Loading...
Error

Белоснежка: Месть гномов / Mirror Mirror (Тарсем Синх) [2012 г., фэнтези, драма, комедия, приключения, HDRip] [лицензия]

Статистика раздачи
Размер:  1,46 GB   |    Зарегистрирован:  4 года 6 месяцев   |    Скачан:  139 раз

Полного источника не было: 16 дней

Сидов:  0  |  0 KB/s  ]   Личеров:  0  |  0 KB/s  ]

* - сиды/пиры с внешних источников

   
 
Автор Сообщение

RG NewCinema 

29-Май-2012 18:29

Белоснежка: Месть гномов / Mirror Mirror


Год выпуска: 2012
Жанр: фэнтези, драма, комедия, приключения
Страна: США
Режиссер: Тарсем Синх
В ролях: Джулия Робертс, Лили Коллинз, Арми Хаммер, Натан Лейн, Джордан Прентис, Марк Повинелли, Джо Гнофо, Дэнни Вудберн, Себастьян Сарасено, Мартин Клеббэ
Сюжет фильма:
Злая Королева, мечтающая выйти замуж за красивого и богатого Принца, хитростью выдворяет из дворца Белоснежку и берет власть в свои руки. Но милая девушка не погибла в темном дремучем лесу, а связалась с бандой гномов-разбойников. Вместе они отомстят Злодейке!

  • Мировая премьера: 15 марта 2012
  • Российская премьера: 15 марта 2012, Парадиз

/
Качество видео: HDRip

Продолжительность: 01:48:19

Формат: avi
Видео: XviD, 720x400, 1471 kbps
Аудио: русский, дублированный (лицензия), AC3 5.1, 448 kbps

Код:

General
Complete name                    : D:\Video\Sources\Belosnejka.Mest.Gnomov.2012.D.HDRip.avi
Format                           : AVI
Format/Info                      : Audio Video Interleave
File size                        : 1.46 GiB
Duration                         : 1h 48mn
Overall bit rate                 : 1 929 Kbps
Movie name                       : Belosnejka.Mest.Gnomov.2012.D.HDRip.IRONCLUB
Director                         : http://ironclub.tv
Writing application              : VirtualDubMod 1.5.10.3 | www.virtualdub-fr.org || (build 2550/release)

Video
ID                               : 0
Format                           : MPEG-4 Visual
Format profile                   : Streaming Video@L1
Format settings, BVOP            : Yes
Format settings, QPel            : No
Format settings, GMC             : No warppoints
Format settings, Matrix          : Custom
Codec ID                         : XVID
Codec ID/Hint                    : XviD
Duration                         : 1h 48mn
Bit rate                         : 1 472 Kbps
Width                            : 720 pixels
Height                           : 400 pixels
Display aspect ratio             : 16/9
Frame rate                       : 24.000 fps
Resolution                       : 24 bits
Colorimetry                      : 4:2:0
Scan type                        : Progressive
Bits/(Pixel*Frame)               : 0.213
Stream size                      : 1.11 GiB (76%)
Writing library                  : XviD 1.2.1 (UTC 2008-12-04)

Audio
ID                               : 1
Format                           : AC-3
Format/Info                      : Audio Coding 3
Codec ID                         : 2000
Duration                         : 1h 48mn
Bit rate mode                    : Constant
Bit rate                         : 448 Kbps
Channel(s)                       : 6 channels
Channel positions                : Front: L C R, Surround: L R, LFE
Sampling rate                    : 48.0 KHz
Stream size                      : 347 MiB (23%)
Alignment                        : Split accross interleaves
Interleave, duration             : 42 ms (1.00 video frame)
Interleave, preload duration     : 500 ms

Семпл: http://multi-up.com/710305
picpicpic
Для увеличения картинки щелкните мышкой по превью

Этот торрент недоступен для скачивания без регистрации, однако доступен по публичной magnet-ссылке (источники с публичных трекеров). Перед использованием ссылки прочтите, пожалуйста Пользовательское соглашение, а также как можно дольше оставайтесь на раздаче! Для того, чтобы скачать сам торрент-файл (который видит больше источников), а также для того, чтобы поблагодарить релизера, вам необходимо зарегистрироваться. Если регистрироваться лень - вы можете также попробовать скачать релиз по нашим партнерским ссылкам ниже.

[underverse.su].t18094.torrent
Трекер: Зарегистрирован   [ 29.05.2012 18:29 ]  

Статус: проверено (by Паукан at 29.05.2012 18:33)
Поблагодарили: 5 человек
Тип торрента: публичный - доступные источники с открытых трекеров: 
Размер: 1,46 GB (занимает 0,33 DVDR, для записи нужно 1 болванка DVDR/RW)
 
 
Похожие темы
Форум Тема Автор Торрент Отв. Посл. сооб.
Зарубежное кино [DVDRip, Low-Res HDRip, и т.д.] Белоснежка и охотник / Snow White and the Huntsman (Руперт Сандерс) [2012 г., фэнтези, боевик, драма, приключения, HDRip] Dub + Original 90ytr90
1 | 0

2 | 697

50

05.10.2012 11:34

Зарубежное кино [DVDRip, Low-Res HDRip, и т.д.] Белоснежка и принц эльфов / Grimm`s Snow White (Рэйчел Голденберг) [2012 г., фэнтези, приключения, DVDRip] RG NewCinema
0 | 0

0 | 1660

32

23.06.2012 08:48

Зарубежное кино [DVDRip, Low-Res HDRip, и т.д.] Белоснежка и охотник / Snow White and the Huntsman [Extended] (Руперт Сандерс) [2012 г., фэнтези, боевик, драма, приключения, HDRip] Dub 90ytr90
1 | 0

1 | 702

44

05.01.2013 03:56

Зарубежное кино [DVDRip, Low-Res HDRip, и т.д.] Белоснежка: Смертельное лето / Snow White: A Deadly Summer (Дэвид ДеКото) [2012 г., ужасы, HDRip] VO [Андрей Дольский] RG NewCinema
1 | 0

1 | 987

20

27.10.2012 12:43

Зарубежное кино [DVDRip, Low-Res HDRip, и т.д.] Белоснежка и охотник [Театральная версия] / Snow White and the Huntsman [Theatrical Cut] (Руперт Сандерс) [2012 г., фэнтези, боевик, драма, приключения, HDRip] Dub Garnett
17 | 0

0 | 671

18

07.12.2012 13:10

Зарубежное кино [DVDRip, Low-Res HDRip, и т.д.] Белоснежка и охотник [Расширенная версия] / Snow White and the Huntsman [Extended Cut] (Руперт Сандерс) [2012 г., фэнтези, боевик, драма, приключения, BDRip-AVC] Dub + Subs (rus, eng) Garnett
474 | 1

1 | 1662

68

29.01.2013 10:32

Зарубежное кино [DVDRip, Low-Res HDRip, и т.д.] Белоснежка и Охотник 2 / The Huntsman: Winter's War (Седрик Николя-Троян / Cedric Nicolas-Troyan) [2016 г., фэнтези, приключения, BDRip] [Extended Cut] Dub + hardsub (Rus) 90ytr90
57 | 4

0 | 462

5

08.08.2016 16:28

Зарубежное кино [DVDRip, Low-Res HDRip, и т.д.] Белоснежка и Охотник 2 / The Huntsman: Winter's War (Седрик Николя-Троян / Cedric Nicolas-Troyan) [2016 г., фэнтези, приключения, BDRip] [Theatrical Cut] Dub + hardsub (Rus) 90ytr90
17 | 2

0 | 497

4

08.08.2016 16:40

Зарубежное кино [DVDRip, Low-Res HDRip, и т.д.] Белоснежка и Охотник 2 / The Huntsman: Winter's War (Седрик Николя-Троян / Cedric Nicolas-Troyan) [2016 г., фэнтези, приключения, BDRip] [Extended Cut] Dub 90ytr90
179 | 6

0 | 464

10

11.08.2016 19:51

Зарубежное кино HQ Белоснежка и охотник / Snow White and the Huntsman (Руперт Сандерс) [2012 г., фэнтези, боевик, драма, приключения, HDRip] Dub + Original Eng(ext) + Sub(Rus,Eng) HQ Underverse HQ Underverse
0 | 0

3 | 1008

61

10.10.2012 07:12

wolodja123 Пол:Муж

01-Июн-2012 19:40

:beer:

Delion Пол:Муж

05-Окт-2012 11:32

Простой, веселый, жизнерадостный фильм который можно посмотреть всей семьей. Джулия Робертс просто прекрасна :)

Яндекс.Метрика powered by Sphinx


В Н И М А Н И Е
Сайт не распространяет и не хранит электронные версии произведений, а лишь бесплатно и без коммерческой выгоды (не требуя взамен платы,
SMS и т.д.) предоставляет доступ к создаваемому пользователями каталогу ссылок на торрент-файлы, которые содержат только списки хеш-сумм.
Убедительная просьба с жалобами обращаться напрямую к пользователю, разместившему торрент файл.

Вверх