Loading...
Error

Дорога на остров Пасхи / Сезон: 1 Серии: 1-16 из 16 (Всеволод Аравин) [2012 г., драма, мелодрама, криминал, DVB]

Статистика раздачи
Размер:  27,31 GB   |    Зарегистрирован:  4 года 6 месяцев   |    Скачан:  0 раз

Полного источника не было: 4 года 4 месяца

Сидов:  0  |  0 KB/s  ]   Личеров:  0  |  0 KB/s  ]

* - сиды/пиры с внешних источников

   
 
Автор Сообщение

yuriy1920 Пол:Муж

27-Май-2012 20:45

Дорога на остров Пасхи / Сезон: 1 Серии: 1-16 из 16


Год выпуска: 2012
Жанр: драма, мелодрама, криминал
Страна: Россия
Режиссер: Всеволод Аравин
В ролях: Егор Бероев, Екатерина Олькина, Антон Шурцов, Юлия Галкина, Виталий Хаев, Иван Гордиенко, Юрий Беляев, Евгения Брик, Егор Баринов, Леонид Тимцуник, Александр Наумов, Кирилл Плетнев, Анастасия Панина, Олег Жданов, Игорь Климов, Юрий Назаров, Тимофей Бурдаков, Глеб Бурдаков, Лана Щербакова, Олег Васильков, Михаил Станкевич, Алексей Свиридов, Анатолий Кот, Елена Финогеева, Наталья Батрак, Александр Леньков, Сергей Заботин, Валентина Пустовойт, Андрей Бобров, Сергей Чекрыгин, Александр Степанов (VI), Дмитрий Саблин, Александр Филиппов (III), Анатолий Соловьев (II), Владислав Третьяк (II), Владимир Цымбал, Андрей Аверьянов, Вячеслав Титов, Дмитрий Свергунов, Ильдар Кенкерли, Владимир Наджафов
Сюжет фильма:
В один из солнечных летних дней из тюрьмы строгого режима выходит на свободу Олег Бардин. Он отсидел 12 лет за ограбление банковского броневика и теперь хочет только одного — забыть о прошлом и начать новую жизнь с Надеждой — женщиной, которая его любит и сыном Андреем. Но 18 млн. Долларов, украденные из броневика в далеком 98-м году и пропавшие в неизвестном направлении не дают покоя многим. И кроме Надежды у ворот тюрьмы Олега поджидают многочисленные плохие парни и не менее многочисленные неприятности.


Качество видео: DVB

Продолжительность: 02:07:25

Формат: mpg
Видео: MPEG-2 Video, 720x576, 5245 kbps
Аудио: русский, оригинал, MP1 2.0, 256 kbps

Код:

General
Complete name                    : E:\торрент\Дорога на остров Пасхи ( Всеволод Аравин )[2012г.Боевик, DVB.]\1 - 3-я серии.mpg
Format                           : MPEG-PS
File size                        : 5.10 GiB
Duration                         : 2h 7mn
Overall bit rate                 : 5 728 Kbps

Video
ID                               : 224 (0xE0)
Format                           : MPEG Video
Format version                   : Version 2
Format profile                   : Main@Main
Format settings, Matrix          : Default
Duration                         : 2h 7mn
Bit rate mode                    : Variable
Bit rate                         : 5 245 Kbps
Nominal bit rate                 : 10 000 Kbps
Width                            : 720 pixels
Height                           : 576 pixels
Display aspect ratio             : 4/3
Frame rate                       : 25.000 fps
Standard                         : PAL
Colorimetry                      : 4:2:0
Scan type                        : Interlaced
Scan order                       : Top Field First
Bits/(Pixel*Frame)               : 0.506
Stream size                      : 4.67 GiB (92%)

Audio
ID                               : 192 (0xC0)
Format                           : MPEG Audio
Format version                   : Version 1
Format profile                   : Layer 2
Duration                         : 2h 7mn
Bit rate mode                    : Constant
Bit rate                         : 256 Kbps
Channel(s)                       : 2 channels
Sampling rate                    : 48.0 KHz
Resolution                       : 16 bits
Stream size                      : 233 MiB (4%)

picpicpic
Для увеличения картинки щелкните мышкой по превью

Этот торрент недоступен для скачивания без регистрации, однако доступен по публичной magnet-ссылке (источники с публичных трекеров). Перед использованием ссылки прочтите, пожалуйста Пользовательское соглашение, а также как можно дольше оставайтесь на раздаче! Для того, чтобы скачать сам торрент-файл (который видит больше источников), а также для того, чтобы поблагодарить релизера, вам необходимо зарегистрироваться. Если регистрироваться лень - вы можете также попробовать скачать релиз по нашим партнерским ссылкам ниже.

[underverse.su].t18075.torrent
Трекер: Зарегистрирован   [ 01.06.2012 19:14 ]  

Статус: проверено (by garry at 03.06.2012 07:58)
Поблагодарили: пока никто не поблагодарил...
Тип торрента: публичный - доступные источники с открытых трекеров: 
Размер: 27,31 GB (занимает 6,24 DVDR, для записи нужно 7 болванок DVDR/RW)
 
 
Похожие темы
Форум Тема Автор Торрент Отв. Посл. сооб.
Наше кино [DVDRip, Low-Res HDRip, и т.д.] Дорога на Берлин (Сергей Попов ) [2015 г., военный, драма, DVDRip] nemos
30 | 0

2 | 994

107

22.02.2016 07:19

xUSSR сериалы Дорога на остров Пасхи [01 - 16 из 16] (Всеволод Аравин) [2012 г., драма, мелодрама, криминал, SatRip] nemos
4 | 6

0 | 932

9

09.07.2012 10:39

Архив Дорога на Эльдорадо / The Road to El Dorado (Бибо Бержерон, Уилл Финн, Дон Пол) [2000 г., комедия, приключения, семейный, мультфильм, DVDRip] NMZ
0 | 0

3 | 1722

2

08.10.2010 21:24



Последний раз редактировалось: yuriy1920 (01.06.2012 19:14), всего редактировалось 3 раз(а)

yuriy1920 Пол:Муж

31-Май-2012 15:18

Добавлены 6-10 серии.
Обновите торрент.

добавлено спустя 19 часов 29 минут 51 секунда:

Добавлены 11-12 серии.
Обновите торрент.

добавлено спустя 22 часа 49 минут 14 секунд:

Добавлены 13-14 серии.
Обновите торрент.

yuriy1920 Пол:Муж

01-Июн-2012 19:16

Добавлены 15-17 серии.
Обновите торрент.

Яндекс.Метрика powered by Sphinx


В Н И М А Н И Е
Сайт не распространяет и не хранит электронные версии произведений, а лишь бесплатно и без коммерческой выгоды (не требуя взамен платы,
SMS и т.д.) предоставляет доступ к создаваемому пользователями каталогу ссылок на торрент-файлы, которые содержат только списки хеш-сумм.
Убедительная просьба с жалобами обращаться напрямую к пользователю, разместившему торрент файл.

Вверх