Loading...
Error

Охотник / The Hunter (Дэниэл Неттхейм) [2011 г., драма, приключения, HDRip]

Статистика раздачи
Размер:  2,05 GB   |    Зарегистрирован:  4 года 6 месяцев   |    Скачан:  59 раз

Полного источника не было: 1 год 4 месяца

Сидов:  0  |  0 KB/s  ]   Личеров:  0  |  0 KB/s  ]

* - сиды/пиры с внешних источников

   
 
Автор Сообщение

RG NewCinema 

25-Май-2012 16:26

Охотник / The Hunter


Год выпуска: 2011
Жанр: драма, приключения
Страна: Австралия
Режиссер: Дэниэл Неттхейм
В ролях: Уиллем Дефо, Фрэнсис О’Коннор, Сэм Нил, Салливан Степлтон, Каллэн Мулвей, Дэниэл Уилли, Яцек Коман, Моргана Дейвис, Дэн Спилман, Джон Брамптон
Сюжет фильма:
Мартин охотник-одиночка. У него нет друзей и семьи. Он берется за самые рискованные и опасные задания ведь ему нечего терять. В поисках легкого заработка по контракту с загадочной биотехнологической компанией он отправляется в дикие земли Тасмании. Его задача отыскать и убить последнего Австралийского Тигра, который уже несколько лет считается полностью истребленным. Прибыв на место, Мартин селится у Люси странной и одинокой красивой женщины, которая скорбит по мужу, исчезнувшему в тасманской глуши при крайне загадочных обстоятельствах.

  • Мировая премьера: 9 сентября 2011
  • Российская премьера: 10 мая 2012, Другое кино

/
Качество видео: HDRip

Продолжительность: 01:44:14

Формат: avi
Видео: XviD, 720x304, 1929 kbps
Аудио #1: русский, многоголосый закадровый (профессиональный), AC3 5.1, 448 kbps
Аудио #2: английский, оригинал, AC3 5.1, 448 kbps

Код:

General
Complete name                    : D:\Video\Sources\Oxotnik.2011.P.HDRip.avi
Format                           : AVI
Format/Info                      : Audio Video Interleave
Format profile                   : OpenDML
File size                        : 2.05 GiB
Duration                         : 1h 44mn
Overall bit rate                 : 2 819 Kbps
Movie name                       : Oxotnik.2011.P.HDRip.IRONCLUB
Director                         : http://ironclub.tv/
Genre                            : Drama
Writing application              : VirtualDubMod 1.5.10.3 (build 2550/release)
Original source form/Name        : Movie

Video
ID                               : 0
Format                           : MPEG-4 Visual
Format profile                   : Streaming Video@L1
Format settings, BVOP            : Yes
Format settings, QPel            : No
Format settings, GMC             : No warppoints
Format settings, Matrix          : Custom
Muxing mode                      : Packed bitstream
Codec ID                         : XVID
Codec ID/Hint                    : XviD
Duration                         : 1h 44mn
Bit rate                         : 1 930 Kbps
Width                            : 720 pixels
Height                           : 304 pixels
Display aspect ratio             : 2.35
Frame rate                       : 24.000 fps
Resolution                       : 24 bits
Colorimetry                      : 4:2:0
Scan type                        : Progressive
Bits/(Pixel*Frame)               : 0.367
Stream size                      : 1.40 GiB (68%)
Writing library                  : XviD 1.2.1 (UTC 2008-12-04)

Audio #1
ID                               : 1
Format                           : AC-3
Format/Info                      : Audio Coding 3
Codec ID                         : 2000
Duration                         : 1h 41mn
Bit rate mode                    : Constant
Bit rate                         : 448 Kbps
Channel(s)                       : 6 channels
Channel positions                : Front: L C R, Surround: L R, LFE
Sampling rate                    : 48.0 KHz
Stream size                      : 325 MiB (15%)
Alignment                        : Split accross interleaves
Interleave, duration             : 43 ms (1.03 video frame)
Interleave, preload duration     : 500 ms

Audio #2
ID                               : 2
Format                           : AC-3
Format/Info                      : Audio Coding 3
Codec ID                         : 2000
Duration                         : 1h 41mn
Bit rate mode                    : Constant
Bit rate                         : 448 Kbps
Channel(s)                       : 6 channels
Channel positions                : Front: L C R, Surround: L R, LFE
Sampling rate                    : 48.0 KHz
Stream size                      : 325 MiB (15%)
Alignment                        : Split accross interleaves
Interleave, duration             : 43 ms (1.03 video frame)
Interleave, preload duration     : 500 ms

Семпл: http://multi-up.com/706968

picpicpic
Для увеличения картинки щелкните мышкой по превью

Этот торрент недоступен для скачивания без регистрации, однако доступен по публичной magnet-ссылке (источники с публичных трекеров). Перед использованием ссылки прочтите, пожалуйста Пользовательское соглашение, а также как можно дольше оставайтесь на раздаче! Для того, чтобы скачать сам торрент-файл (который видит больше источников), а также для того, чтобы поблагодарить релизера, вам необходимо зарегистрироваться. Если регистрироваться лень - вы можете также попробовать скачать релиз по нашим партнерским ссылкам ниже.

[underverse.su].t18052.torrent
Трекер: Зарегистрирован   [ 25.05.2012 16:26 ]  

Статус: проверено (by Паукан at 25.05.2012 16:27)
Поблагодарили: 2 человека
Тип торрента: публичный - доступные источники с открытых трекеров: 
Размер: 2,05 GB (занимает 0,47 DVDR, для записи нужно 1 болванка DVDR/RW)
 
 
Похожие темы
Форум Тема Автор Торрент Отв. Посл. сооб.
Зарубежное кино [DVDRip, Low-Res HDRip, и т.д.] Охотник / The Hunter (Дэниэл Неттхейм / Daniel Nettheim) [2011 г., драма, BDRip] MVO 90ytr90
14 | 1

0 | 285

5

11.02.2015 19:35


Яндекс.Метрика powered by Sphinx


В Н И М А Н И Е
Сайт не распространяет и не хранит электронные версии произведений, а лишь бесплатно и без коммерческой выгоды (не требуя взамен платы,
SMS и т.д.) предоставляет доступ к создаваемому пользователями каталогу ссылок на торрент-файлы, которые содержат только списки хеш-сумм.
Убедительная просьба с жалобами обращаться напрямую к пользователю, разместившему торрент файл.

Вверх