Loading...
Error

Путешествие 2: Таинственный остров / Journey 2: The Mysterious Island (Брэд Пейтон) [2012 г., фантастика, фэнтези, боевик, комедия, приключения, семейный, HDRip] (Rus, Eng) HQ Underverse

Статистика раздачи
Размер:  2,18 GB   |    Зарегистрирован:  4 года 6 месяцев   |    Скачан:  56 раз

Полного источника не было: 8 месяцев

Сидов:  0  |  0 KB/s  ]   Личеров:  0  |  0 KB/s  ]

* - сиды/пиры с внешних источников

   
 
Автор Сообщение

HQ Underverse 

25-Май-2012 10:26

Путешествие 2: Таинственный остров / Journey 2: The Mysterious Island


Год выпуска: 2012
Жанр: фантастика, фэнтези, боевик, комедия, приключения, семейный
Страна: США
Режиссер: Брэд Пейтон
В ролях: Дуэйн Джонсон, Майкл Кейн, Джош Хатчерсон, Ванесса Энн Хадженс, Луис Гузман, Кристин Дэвис, Анна Колвелл, Стивен Кодилл, Брэнском Ричмонд, Уолтер Бэнксон
Сюжет фильма:
На этот раз Шон Андерсон получает закодированный сигнал с просьбой о помощи, причем с загадочного острова, из места, где никакого острова и быть не может. Там обитают странные формы жизни, скрываются горы золота, смертоносные вулканы и не одна ошеломляющая тайна. Отчиму Шона, не сумевшему остановить его, ничего не остается, как тоже присоединиться к поискам. Вместе с пилотом вертолета и его прекрасной и решительной дочерью им предстоит найти остров, спасти его одинокого обитателя и немедленно покинуть это место, прежде чем землетрясение скроет остров под водой и похоронит навеки его сокровища.

  • Мировая премьера: 19 января 2012
  • Российская премьера: 9 февраля 2012, Каро-Премьер 3D

/
Качество видео: HDRip

Продолжительность: 01:34:10

Формат: avi
Видео: XviD, 704x384, 2397 kbps
Аудио #1: русский, дублированный (лицензия), AC3 5.1, 448 kbps
Аудио #2: английский, оригинал, AC3 5.1, 448 kbps
Субтитры: внешние, SRT, английский (на narod.ru)

Код:

General
Complete name                    : D:\Video\HQ-Rips\Путешествие 2\Journey.2.2012.HDRip.XviD.AC3.Rus.D.Eng.O.HQ.Underverse.avi
Format                           : AVI
Format/Info                      : Audio Video Interleave
Format profile                   : OpenDML
File size                        : 2.18 GiB
Duration                         : 1h 34mn
Overall bit rate                 : 3 311 Kbps
Writing application              : VirtualDubMod 1.5.10.2 (build 2542/release)
Writing library                  : VirtualDubMod build 2542/release

Video
ID                               : 0
Format                           : MPEG-4 Visual
Format profile                   : Streaming Video@L1
Format settings, BVOP            : Yes
Format settings, QPel            : No
Format settings, GMC             : No warppoints
Format settings, Matrix          : Custom
Muxing mode                      : Packed bitstream
Codec ID                         : XVID
Codec ID/Hint                    : XviD
Duration                         : 1h 34mn
Bit rate                         : 2 397 Kbps
Width                            : 704 pixels
Height                           : 384 pixels
Display aspect ratio             : 16/9
Frame rate                       : 23.976 fps
Resolution                       : 24 bits
Colorimetry                      : 4:2:0
Scan type                        : Progressive
Bits/(Pixel*Frame)               : 0.370
Stream size                      : 1.58 GiB (72%)
Writing library                  : XviD 64

Audio #1
ID                               : 1
Format                           : AC-3
Format/Info                      : Audio Coding 3
Codec ID                         : 2000
Duration                         : 1h 34mn
Bit rate mode                    : Constant
Bit rate                         : 448 Kbps
Channel(s)                       : 6 channels
Channel positions                : Front: L C R, Surround: L R, LFE
Sampling rate                    : 48.0 KHz
Stream size                      : 302 MiB (14%)
Alignment                        : Split accross interleaves
Interleave, duration             : 42 ms (1.00 video frame)
Interleave, preload duration     : 500 ms

Audio #2
ID                               : 2
Format                           : AC-3
Format/Info                      : Audio Coding 3
Codec ID                         : 2000
Duration                         : 1h 34mn
Bit rate mode                    : Constant
Bit rate                         : 448 Kbps
Channel(s)                       : 6 channels
Channel positions                : Front: L C R, Surround: L R, LFE
Sampling rate                    : 48.0 KHz
Stream size                      : 302 MiB (14%)
Alignment                        : Split accross interleaves
Interleave, duration             : 42 ms (1.00 video frame)
Interleave, preload duration     : 500 ms

Релиз группы:
picpicpic
Для увеличения картинки щелкните мышкой по превью

Этот торрент недоступен для скачивания без регистрации, однако доступен по публичной magnet-ссылке (источники с публичных трекеров). Перед использованием ссылки прочтите, пожалуйста Пользовательское соглашение, а также как можно дольше оставайтесь на раздаче! Для того, чтобы скачать сам торрент-файл (который видит больше источников), а также для того, чтобы поблагодарить релизера, вам необходимо зарегистрироваться. Если регистрироваться лень - вы можете также попробовать скачать релиз по нашим партнерским ссылкам ниже.

[underverse.su].t18049.torrent
Трекер: Зарегистрирован   [ 25.05.2012 10:26 ]  

Статус: проверено (by HQ Underverse at 25.05.2012 10:36)
Поблагодарили: 2 человека
Тип торрента: публичный - доступные источники с открытых трекеров: 
Размер: 2,18 GB (занимает 1/2 DVDR, для записи нужно 1 болванка DVDR/RW)
 
 
Похожие темы
Форум Тема Автор Торрент Отв. Посл. сооб.
Зарубежное кино [DVDRip, Low-Res HDRip, и т.д.] Путешествия Гулливера / Gulliver's Travels (Роб Леттерман) [2010 г., фэнтези, комедия, приключения, BDRip] Dub garry
8 | 0

0 | 530

5

18.12.2012 20:28

Зарубежное кино [DVDRip, Low-Res HDRip, и т.д.] Путешествие на Запад: Покорение демонов / Journey to the West: Conquering the Demons (Чи-Кин Квок) [2013 г., фэнтези, комедия, приключения, HDRip] DVO 90ytr90
1 | 0

2 | 1642

59

24.03.2013 09:44

Зарубежное кино [DVDRip, Low-Res HDRip, и т.д.] Путешествие к Рождественской звезде / Reisen til julestjernen (Нильс Гауп) [2012 г., фэнтези, приключения, семейный, HDRip] MVO + Original 90ytr90
151 | 4

0 | 519

16

18.12.2013 05:31

T Зарубежное кино [DVDRip, Low-Res HDRip, и т.д.] Путешествие Гектора в поисках счастья / Hector and the Search for Happiness (Питер Челсом / Peter Chelsom) [2014 г., драма, комедия, приключения, WEBRip] Dub (чистый звук) 90ytr90
1 | 0

0 | 774

35

02.01.2015 07:58

T Зарубежное кино [DVDRip, Low-Res HDRip, и т.д.] Путешествие Гектора в поисках счастья / Hector and the Search for Happiness (Питер Челсом / Peter Chelsom) [2014 г., драма, комедия, приключения, WEBRip] Dub (чистый звук) 90ytr90
1 | 0

0 | 655

16

03.01.2015 15:11

T Зарубежное кино [DVDRip, Low-Res HDRip, и т.д.] Путешествие Гектора в поисках счастья / Hector and the Search for Happiness (Питер Челсом / Peter Chelsom) [2014 г., драма, комедия, приключения, BDRip-AVC] Dub + Original (Eng) 90ytr90
4 | 0

1 | 477

16

04.03.2015 19:15

T Зарубежное кино [DVDRip, Low-Res HDRip, и т.д.] Путешествие Гектора в поисках счастья / Hector and the Search for Happiness (Питер Челсом / Peter Chelsom) [2014 г., драма, комедия, приключения, HDRip] Dub (iTunes) 90ytr90
15 | 1

0 | 613

11

22.02.2015 10:06

T Зарубежное кино [DVDRip, Low-Res HDRip, и т.д.] Путешествие Гектора в поисках счастья / Hector and the Search for Happiness (Питер Челсом / Peter Chelsom) [2014 г., драма, комедия, приключения, HDRip] Dub (iTunes) 90ytr90
7 | 0

0 | 571

8

22.02.2015 10:10

Зарубежное кино [DVDRip, Low-Res HDRip, и т.д.] Путешествие к маяку / La traversee du phare (Терри Redler) [1999 г., драма, DVDRip] VO + Original + Subs makkol
5 | 0

0 | 745

4

11.08.2015 12:11

Зарубежное кино [DVDRip, Low-Res HDRip, и т.д.] Путешествие из Парижа / Paris-Willouby (Артур Делер / Arthur Delaire, Квентин Рейно / Quentin Reynaud) [2015 г., комедия, WEB-DLRip] MVO (официальный звук) 90ytr90
205 | 1

0 | 560

15

29.05.2016 19:53

KplusH 

28-Фев-2015 12:07

И тут нет раздачи... удалили бы что-ли, чтобы народ время зря не тратил...

Яндекс.Метрика powered by Sphinx


В Н И М А Н И Е
Сайт не распространяет и не хранит электронные версии произведений, а лишь бесплатно и без коммерческой выгоды (не требуя взамен платы,
SMS и т.д.) предоставляет доступ к создаваемому пользователями каталогу ссылок на торрент-файлы, которые содержат только списки хеш-сумм.
Убедительная просьба с жалобами обращаться напрямую к пользователю, разместившему торрент файл.

Вверх