Loading...
Error

Джон Картер / John Carter (Эндрю Стэнтон) [2012 г., фантастика, фэнтези, боевик, приключения, HDRip] (Rus, Eng) HQ Underverse

Статистика раздачи
Размер:  2,18 GB   |    Зарегистрирован:  4 года 6 месяцев   |    Скачан:  158 раз

Полного источника не было: 22 дня

Сидов:  0  |  0 KB/s  ]   Личеров:  0  |  0 KB/s  ]

* - сиды/пиры с внешних источников

   
 
Автор Сообщение

HQ Underverse 

23-Май-2012 12:17

Джон Картер / John Carter


Год выпуска: 2012
Жанр: фантастика, фэнтези, боевик, приключения
Страна: США
Режиссер: Эндрю Стэнтон
В ролях: Тейлор Китч, Линн Коллинз, Саманта Мортон, Уиллем Дефо, Томас Хейден Чёрч, Марк Стронг, Кирен Хайдз, Доминик Уэст, Джеймс Пьюрфой, Брайан Крэнстон
Сюжет фильма:
Ветеран Гражданской войны в США Джон Картер против своей воли оказывается на Марсе, где попадает в плен к воинственным четырехметровым туземцам. Картеру предстоит не только спастись самому, но и спасти принцессу Дею Торис из Гелиума.

  • Мировая премьера: 22 февраля 2012
  • Российская премьера: 8 марта 2012, WDSSPR 3D

/
Качество видео: HDRip

Продолжительность: 02:12:01

Формат: avi
Видео: XviD, 720x304, 1970 kbps
Аудио #1: русский, дублированный (дубляж), AC3 5.1, 384 kbps [лицензия]
Аудио #2: английский, оригинал, AC3 5.1, 384 kbps (отдельным файлом: здесь)
Субтитры #1: внешние, SRT, английский (на narod.ru)
Субтитры #2: внешние, SRT, русский (на narod.ru)
Субтитры #3: внешние, SRT, русский (на марсианскую речь) (на narod.ru)

Код:

General
Complete name                    : D:\Video\HQ-Rips\Джон Картер\John.Carter.2012.HDRip.XviD.AC3.Rus.D.HQ.Underverse.avi
Format                           : AVI
Format/Info                      : Audio Video Interleave
Format profile                   : OpenDML
File size                        : 2.18 GiB
Duration                         : 2h 12mn
Overall bit rate                 : 2 366 Kbps
Writing application              : VirtualDubMod 1.5.10.2 (build 2542/release)
Writing library                  : VirtualDubMod build 2542/release

Video
ID                               : 0
Format                           : MPEG-4 Visual
Format profile                   : Streaming Video@L1
Format settings, BVOP            : Yes
Format settings, QPel            : No
Format settings, GMC             : No warppoints
Format settings, Matrix          : Custom
Muxing mode                      : Packed bitstream
Codec ID                         : XVID
Codec ID/Hint                    : XviD
Duration                         : 2h 12mn
Bit rate                         : 1 970 Kbps
Width                            : 720 pixels
Height                           : 304 pixels
Display aspect ratio             : 2.35
Frame rate                       : 23.976 fps
Resolution                       : 24 bits
Colorimetry                      : 4:2:0
Scan type                        : Progressive
Bits/(Pixel*Frame)               : 0.375
Stream size                      : 1.82 GiB (83%)
Writing library                  : XviD 64

Audio
ID                               : 1
Format                           : AC-3
Format/Info                      : Audio Coding 3
Codec ID                         : 2000
Duration                         : 2h 12mn
Bit rate mode                    : Constant
Bit rate                         : 384 Kbps
Channel(s)                       : 6 channels
Channel positions                : Front: L C R, Surround: L R, LFE
Sampling rate                    : 48.0 KHz
Stream size                      : 363 MiB (16%)
Alignment                        : Split accross interleaves
Interleave, duration             : 42 ms (1.00 video frame)
Interleave, preload duration     : 500 ms
Релиз группы:

picpicpic
Для увеличения картинки щелкните мышкой по превью

Этот торрент недоступен для скачивания без регистрации, однако доступен по публичной magnet-ссылке (источники с публичных трекеров). Перед использованием ссылки прочтите, пожалуйста Пользовательское соглашение, а также как можно дольше оставайтесь на раздаче! Для того, чтобы скачать сам торрент-файл (который видит больше источников), а также для того, чтобы поблагодарить релизера, вам необходимо зарегистрироваться. Если регистрироваться лень - вы можете также попробовать скачать релиз по нашим партнерским ссылкам ниже.

[underverse.su].t18029.torrent
Трекер: Зарегистрирован   [ 23.05.2012 12:17 ]  

Статус: проверено (by garry at 23.05.2012 12:31)
Поблагодарили: 9 человек
Тип торрента: публичный - доступные источники с открытых трекеров: 
Размер: 2,18 GB (занимает 1/2 DVDR, для записи нужно 1 болванка DVDR/RW)
 
 
Похожие темы
Форум Тема Автор Торрент Отв. Посл. сооб.
Зарубежное кино [DVDRip, Low-Res HDRip, и т.д.] Джон Картер / John Carter (Эндрю Стэнтон) [2012 г., фантастика, фэнтези, боевик, приключения, BDRip-AVC] Greshnik
0 | 0

3 | 1136

94

07.07.2013 03:04

Зарубежное кино [DVDRip, Low-Res HDRip, и т.д.] Джон Картер / John Carter (Эндрю Стэнтон / Andrew Stanton) [2012 г., фантастика, фэнтези, боевик, приключения, BDRip] Dub 90ytr90
9 | 1

0 | 556

27

25.04.2013 15:07

Зарубежное кино [DVDRip, Low-Res HDRip, и т.д.] Джон Картер / John Carter (Эндрю Стэнтон / Andrew Stanton) [2012 г., фантастика, фэнтези, боевик, приключения, BDRip] AVO (Гаврилов) 90ytr90
6 | 0

0 | 535

17

19.01.2014 12:03

Зарубежное кино [DVD / HDDVD / BD / Remux] Джон Картер / John Carter (Эндрю Стэнтон / Andrew Stanton) [2012 г., фантастика, фэнтези, боевик, приключения., DVD-5] rjkzyec
0 | 0

7 | 792

19

19.06.2012 16:05

Зарубежное кино [DVD / HDDVD / BD / Remux] Джон Картер / John Carter (Эндрю Стэнтон / Andrew Stanton) [2012, фантастика, фэнтези, боевик, приключения, BDRemux 1080p] Dub + AVO (Гаврилов) + Dub (Ukr) + Original Eng + Sub (Rus, Eng) uzi2009
10 | 1

0 | 1206

7

14.02.2014 22:39

Sauromat Пол:Муж

24-Май-2012 14:18

Где сиды???
С восьми утра пытаюсь скачать этот фильм с лицензионным дубляжом

svsru 

26-Май-2012 06:12

Спасибо за раздачу!
У меня качается примерно 1,5 МБ/c

Tommy-Gun 

06-Июн-2012 18:28

швидкість нормальна, дякую

rjkzyec Пол:Муж

14-Июн-2012 19:58

15.06.12 с 19:00 до 00:00 по Московскому времени будет раздача DVD-5 Джон Картер у меня. Ищите

добавлено спустя 47 секунд:

Можед быть с 09:00 утра

Паукан Пол:Муж

14-Июн-2012 20:36

rjkzyec
К чему такая официальность? :)

rjkzyec Пол:Муж

15-Июн-2012 14:04

:)

dj_maxx писал(а):

rjkzyec
К чему такая официальность? :)
Мне рейтиг поднимать нужно

Яндекс.Метрика powered by Sphinx


В Н И М А Н И Е
Сайт не распространяет и не хранит электронные версии произведений, а лишь бесплатно и без коммерческой выгоды (не требуя взамен платы,
SMS и т.д.) предоставляет доступ к создаваемому пользователями каталогу ссылок на торрент-файлы, которые содержат только списки хеш-сумм.
Убедительная просьба с жалобами обращаться напрямую к пользователю, разместившему торрент файл.

Вверх