Loading...
Error

Зимняя кость / Winter's Bone (Дебра Граник / Debra Granik) [2010, США, триллер, драма, HDRip] DVO

Статистика раздачи
Размер:  1,77 GB   |    Зарегистрирован:  4 года 7 месяцев   |    Скачан:  7 раз

Полного источника не было: 4 месяца 25 дней

Сидов:  0  |  0 KB/s  ]   Личеров:  0  |  0 KB/s  ]

* - сиды/пиры с внешних источников

   
 
Автор Сообщение

90ytr90 

05-Апр-2012 07:14

Зимняя кость / Winter's Bone

  Страна: США
  Год выпуска: 2010
  Дата мировой премьеры: 21 января 2010
  Дата российской премьеры: 23 февраля 2012, «Камертон»
  Жанр: триллер, драма, детектив
  Продолжительность: 01:40:12
Режиссёр: Дебра Граник / Debra Granik

В ролях: Дженнифер Лоуренс, Джон Хоукс, Кевин Брезнахан, Дейл Дикки, Гаррет Диллахант, Шелли Ваггнер, Lauren Sweetser, Эшли Томпсон, Уильям Уайт, Кэйси Мак...


Сюжет: Главная героиня картины — девочка Ри из неблагополучной семьи ее мать серьезно больна, а отец-наркоторговец сидит в тюрьме. В силу такого положения героиня и ее младшие брат и сестра еле-еле сводят концы с концами.Вскоре Ри узнает об исчезновении недавно освободившегося отца, а местный шериф сообщает девушке, что если в ближайшее время тот не появится в суде и не заплатит взнос по закладной, то у нее и ее семьи отберут дом. Ри отправляется на поиски отца, который по слухам уже успел погибнуть в автокатастрофе. В попытках добиться своего девочке придется пройти через не самые благополучные социальные слои, в которых постоянно вертелся ее папаша.

   

Качество раздачи: HDRip
Контейнер: AVI
Видео: XVID, 720x400, 23.976 fps, 1687 kbps, 0.244 bit/pixel
Аудио #1: русский, двухголосый закадровый, Dolby AC3, 48000Hz 6ch, 384.00 kbps
Аудио #2: английский, Dolby AC3, 48000Hz 6ch, 448Kbps (отдельным файлом)





Format: AVI
Format/Info: Audio Video Interleave
File size: 1.46 GiB
Duration: 1h 40mn
Overall bit rate: 2 080 Kbps
Writing application: VirtualDubMod 1.5.10.3 (build 2550/release)
Writing library: VirtualDubMod build 2550/release
Video
ID: 0
Format: MPEG-4 Visual
Format profile: Advanced Simple@L5
Format settings, BVOP: Yes
Format settings, QPel: No
Format settings, GMC: No warppoints
Format settings, Matrix: Custom
Codec ID: XVID
Codec ID/Hint: XviD
Duration: 1h 40mn
Bit rate: 1 687 Kbps
Width: 720 pixels
Height: 400 pixels
Display aspect ratio: 16:9
Frame rate: 23.976 fps
Color space: YUV
Chroma subsampling: 4:2:0
Bit depth: 8 bits
Scan type: Progressive
Bits/(Pixel*Frame): 0.244
Stream size: 1.18 GiB (81%)
Writing library: XviD 1.2.1 (UTC 2008-12-04)
Audio
ID: 1
Format: AC-3
Format/Info: Audio Coding 3
Mode extension: CM (complete main)
Codec ID: 2000
Duration: 1h 40mn
Bit rate mode: Constant
Bit rate: 384 Kbps
Channel(s): 6 channels
Channel positions: Front: L C R, Side: L R, LFE
Sampling rate: 48.0 KHz
Bit depth: 16 bits
Stream size: 275 MiB (18%)
Alignment: Split accross interleaves
Interleave, duration: 42 ms (1.00 video frame)
Interleave, preload duration: 500 ms

Оскар, 2011 год
Номинации (4):
Лучший фильм
Лучшая женская роль (Дженнифер Лоуренс)
Лучшая мужская роль второго плана (Джон Хоукс)
Лучший адаптированный сценарий

Золотой глобус, 2011 год
Номинации (1):
Лучшая женская роль (драма) (Дженнифер Лоуренс)

Берлинский кинофестиваль, 2010 год
Победитель (2):
Приз Европейской конфедерации художественного кино (программа «Форум»)
Приз газеты Tagesspiegel

Санденс, 2010 год
Победитель (1):
Гран-при в категории «Драматический фильм»

Этот торрент недоступен для скачивания без регистрации, однако доступен по публичной magnet-ссылке (источники с публичных трекеров). Перед использованием ссылки прочтите, пожалуйста Пользовательское соглашение, а также как можно дольше оставайтесь на раздаче! Для того, чтобы скачать сам торрент-файл (который видит больше источников), а также для того, чтобы поблагодарить релизера, вам необходимо зарегистрироваться. Если регистрироваться лень - вы можете также попробовать скачать релиз по нашим партнерским ссылкам ниже.

[underverse.su].t17539.torrent
Трекер: Зарегистрирован   [ 05.04.2012 07:14 ]  

Статус: проверено (by garry at 05.04.2012 11:25)
Поблагодарили: пока никто не поблагодарил...
Тип торрента: публичный - доступные источники с открытых трекеров: 
Размер: 1,77 GB (занимает 0,4 DVDR, для записи нужно 1 болванка DVDR/RW)
 
 

Яндекс.Метрика powered by Sphinx


В Н И М А Н И Е
Сайт не распространяет и не хранит электронные версии произведений, а лишь бесплатно и без коммерческой выгоды (не требуя взамен платы,
SMS и т.д.) предоставляет доступ к создаваемому пользователями каталогу ссылок на торрент-файлы, которые содержат только списки хеш-сумм.
Убедительная просьба с жалобами обращаться напрямую к пользователю, разместившему торрент файл.

Вверх