Loading...
Error

За бортом / Overboard (Гэрри Маршалл / Garry Marshall) [1987 г., мелодрама, комедия, BDRip]

Статистика раздачи
Размер:  2,92 GB   |    Зарегистрирован:  4 года 11 месяцев   |    Скачан:  4 раза

Полного источника не было: 4 года 4 месяца

Сидов:  0  |  0 KB/s  ]   Личеров:  1  |  0 KB/s  ]

* - сиды/пиры с внешних источников

   
 
Автор Сообщение

GUree Пол:Муж

09-Янв-2012 12:33

За бортом / Overboard


Год выпуска: 1987
Жанр: мелодрама, комедия
Страна: США
Режиссер: Гэрри Маршалл / Garry Marshall
В ролях: Голди Хоун, Курт Рассел, Эдвард Херрманн, Кэтрин Хелмонд, Майкл Дж. Хэгерти, Родди МакДауэлл, Джэред Раштон
Сюжет фильма:
Джоанна Стейтон — властная, заносчивая и несговорчивая жена самоуверенного владельца яхты. Когда их посудина останавливается для ремонта в небольшом городке, сварливая и взбалмошная Джоанна нанимает плотника Дина Проффитта, чтобы тот смастерил ей новый шкафчик. Но вместо платы за работу Дин получает от ворот поворот — ведь Джоанна никогда ничем не бывает довольна.
Но на этот раз ее фирменные выкрутасы заканчиваются тем, что она падает за борт и напрочь теряет память. А Дин тем временем осуществляет бесподобный план мести: он забирает Джоанну к себе, переименовывает ее в Энни и объявляет своей женой и матерью своих четверых непослушных сыновей...

  • Мировая премьера: 16 декабря 1987, ...
  • Российская премьера: 28 августа 2009, «Двадцатый Век Фокс СНГ», ...


Качество видео: BDRip

Продолжительность: 01:52:10
Формат: MKV
Видео: кодек: x264, размер кадра: 1024x552, битрейт: 2442 kbps
Аудио #1: язык: русский, перевод: одноголосный закадровый (А. Михалёв), кодек: AC3 2.0, битрейт: 224 kbps
Аудио #2: язык: русский, перевод: многоголосый закадровый (ORT), кодек: AC3 2.0, битрейт: 224 kbps
Аудио #3: язык: русский, перевод: многоголосый закадровый (NTV+), кодек: AC3 2.0, битрейт: 192 kbps
Аудио #4: язык: русский, перевод: многоголосый закадровый, кодек: AC3 2.0, битрейт: 192 kbps
Аудио #5: язык: русский, перевод: одноголосый закадровый (К9), кодек: AC3 2.0, битрейт: 192 kbps
Аудио #6: язык: английский, перевод: оригинал, кодек: AC3 2.0, битрейт: 192 kbps
Субтитры #1: тип: вшитые отключаемые, язык: русский, формат: S_TEXT/UTF8
Субтитры #2: тип: вшитые отключаемые, язык: английский, формат: S_TEXT/UTF8

Семпл #1: http://multi-up.com/625700
Семпл #2: http://multi-up.com/625701

Релиз группы:




General
Complete name : Overboard.1987.BDRip.AVCbyGUree.mkv
Format : Matroska
Format version : Version 2
File size : 2.92 GiB
Duration : 1h 52mn
Overall bit rate : 3 733 Kbps
Movie name : -=GUree=-
Encoded date : UTC 2012-01-05 21:53:50
Writing application : mkvmerge v5.2.1 ('A Far Off Place') built on Jan 2 2012 23:21:10
Writing library : libebml v1.2.3 + libmatroska v1.3.0

Video
ID : 1
Format : AVC
Format/Info : Advanced Video Codec
Format profile : High@L4.1
Format settings, CABAC : Yes
Format settings, ReFrames : 8 frames
Codec ID : V_MPEG4/ISO/AVC
Duration : 1h 52mn
Bit rate : 2 514 Kbps
Width : 1 024 pixels
Height : 552 pixels
Display aspect ratio : 1.855
Frame rate : 23.976 fps
Color space : YUV
Chroma subsampling : 4:2:0
Bit depth : 8 bits
Scan type : Progressive
Bits/(Pixel*Frame) : 0.186
Stream size : 1.91 GiB (65%)
Writing library : x264 core 119 r2106 07efeb4
Encoding settings : cabac=1 / ref=8 / deblock=1:-2:-1 / analyse=0x3:0x113 / me=tesa / subme=10 / psy=1 / psy_rd=1.00:0.40 / mixed_ref=1 / me_range=32 / chroma_me=1 / trellis=2 / 8x8dct=1 / cqm=0 / deadzone=21,11 / fast_pskip=0 / chroma_qp_offset=-4 / threads=6 / sliced_threads=0 / nr=0 / decimate=0 / interlaced=0 / bluray_compat=0 / constrained_intra=0 / bframes=10 / b_pyramid=2 / b_adapt=2 / b_bias=0 / direct=3 / weightb=1 / open_gop=0 / weightp=2 / keyint=250 / keyint_min=23 / scenecut=40 / intra_refresh=0 / rc_lookahead=60 / rc=2pass / mbtree=1 / bitrate=2514 / ratetol=1.0 / qcomp=0.75 / qpmin=0 / qpmax=69 / qpstep=4 / cplxblur=20.0 / qblur=0.5 / vbv_maxrate=50000 / vbv_bufsize=50000 / nal_hrd=none / ip_ratio=1.40 / aq=1:1.00
Default : Yes
Forced : No

Audio #1
ID : 2
Format : AC-3
Format/Info : Audio Coding 3
Mode extension : CM (complete main)
Codec ID : A_AC3
Duration : 1h 52mn
Bit rate mode : Constant
Bit rate : 224 Kbps
Channel(s) : 2 channels
Channel positions : Front: L R
Sampling rate : 48.0 KHz
Bit depth : 16 bits
Compression mode : Lossy
Stream size : 180 MiB (6%)
Title : AC3 2.0 224Kb/s AVO(Mihalev)
Language : Russian
Default : Yes
Forced : No

Audio #2
ID : 3
Format : AC-3
Format/Info : Audio Coding 3
Mode extension : CM (complete main)
Codec ID : A_AC3
Duration : 1h 52mn
Bit rate mode : Constant
Bit rate : 224 Kbps
Channel(s) : 2 channels
Channel positions : Front: L R
Sampling rate : 48.0 KHz
Bit depth : 16 bits
Compression mode : Lossy
Stream size : 180 MiB (6%)
Title : AC3 2.0 224Kb/s MVO (ORT)
Language : Russian
Default : No
Forced : No

Audio #3
ID : 4
Format : AC-3
Format/Info : Audio Coding 3
Mode extension : CM (complete main)
Codec ID : A_AC3
Duration : 1h 52mn
Bit rate mode : Constant
Bit rate : 192 Kbps
Channel(s) : 2 channels
Channel positions : Front: L R
Sampling rate : 48.0 KHz
Bit depth : 16 bits
Compression mode : Lossy
Stream size : 154 MiB (5%)
Title : AC3 2.0 192Kb/s MVO (NTV+)
Language : Russian
Default : No
Forced : No

Audio #4
ID : 5
Format : AC-3
Format/Info : Audio Coding 3
Mode extension : CM (complete main)
Codec ID : A_AC3
Duration : 1h 52mn
Bit rate mode : Constant
Bit rate : 192 Kbps
Channel(s) : 2 channels
Channel positions : Front: L R
Sampling rate : 48.0 KHz
Bit depth : 16 bits
Compression mode : Lossy
Stream size : 154 MiB (5%)
Title : AC3 2.0 192Kb/s MVO
Language : Russian
Default : No
Forced : No

Audio #5
ID : 6
Format : AC-3
Format/Info : Audio Coding 3
Mode extension : CM (complete main)
Codec ID : A_AC3
Duration : 1h 52mn
Bit rate mode : Constant
Bit rate : 192 Kbps
Channel(s) : 2 channels
Channel positions : Front: L R
Sampling rate : 48.0 KHz
Bit depth : 16 bits
Compression mode : Lossy
Stream size : 154 MiB (5%)
Title : AC3 2.0 192Kb/s AVO (K9)
Language : Russian
Default : No
Forced : No

Audio #6
ID : 7
Format : AC-3
Format/Info : Audio Coding 3
Mode extension : CM (complete main)
Codec ID : A_AC3
Duration : 1h 52mn
Bit rate mode : Constant
Bit rate : 192 Kbps
Channel(s) : 2 channels
Channel positions : Front: L R
Sampling rate : 48.0 KHz
Bit depth : 16 bits
Compression mode : Lossy
Stream size : 154 MiB (5%)
Title : AC3 2.0 192Kb/s
Language : English
Default : No
Forced : No

Text #1
ID : 8
Format : UTF-8
Codec ID : S_TEXT/UTF8
Codec ID/Info : UTF-8 Plain Text
Language : Russian
Default : No
Forced : No

Text #2
ID : 9
Format : UTF-8
Codec ID : S_TEXT/UTF8
Codec ID/Info : UTF-8 Plain Text
Language : English
Default : No
Forced : No

Этот торрент недоступен для скачивания без регистрации, однако доступен по публичной magnet-ссылке (источники с публичных трекеров). Перед использованием ссылки прочтите, пожалуйста Пользовательское соглашение, а также как можно дольше оставайтесь на раздаче! Для того, чтобы скачать сам торрент-файл (который видит больше источников), а также для того, чтобы поблагодарить релизера, вам необходимо зарегистрироваться. Если регистрироваться лень - вы можете также попробовать скачать релиз по нашим партнерским ссылкам ниже.

[underverse.su].t16705.torrent
Трекер: Зарегистрирован   [ 09.01.2012 12:33 ]  

Статус: проверено (by GUree at 09.01.2012 12:39)
Поблагодарили: пока никто не поблагодарил...
Тип торрента: публичный - доступные источники с открытых трекеров: 
Размер: 2,92 GB (занимает 0,67 DVDR, для записи нужно 1 болванка DVDR/RW)
 
 

Яндекс.Метрика powered by Sphinx


В Н И М А Н И Е
Сайт не распространяет и не хранит электронные версии произведений, а лишь бесплатно и без коммерческой выгоды (не требуя взамен платы,
SMS и т.д.) предоставляет доступ к создаваемому пользователями каталогу ссылок на торрент-файлы, которые содержат только списки хеш-сумм.
Убедительная просьба с жалобами обращаться напрямую к пользователю, разместившему торрент файл.

Вверх