Loading...
Error

Пиджак / The Jacket (Джон Мэйбери) [2005 г., фантастика, фэнтези, драма, триллер, детектив, BDRip]

Статистика раздачи
Размер:  2,46 GB   |    Зарегистрирован:  5 лет 2 месяца   |    Скачан:  2 раза

Полного источника не было: 3 года 7 месяцев

Сидов:  0  |  0 KB/s  ]   Личеров:  0  |  0 KB/s  ]

* - сиды/пиры с внешних источников

   
 
Автор Сообщение

GUree Пол:Муж

29-Сен-2011 02:43

Пиджак / The Jacket


Год выпуска: 2005
Жанр: фантастика, фэнтези, драма, триллер, детектив
Страна: США , Германия
Режиссер: Джон Мэйбери
В ролях: Эдриан Броуди, Кира Найтли, Крис Кристофферсон, Дженнифер Джейсон Ли, Келли Линч, Брэд Ренфро, Дэниэл Крэйг, Стивен Макинтош, Брендан Койл, МакКензи Филлипс
Сюжет фильма:
Ветеран войны в Персидском заливе Джек Старкс, поправляется после ранения в голову. Он возвращается в родной штат Вермонт, но ранение дает о себе знать приступами амнезии. Когда Старкса обвиняют в убийстве полицейского, его направляют на психиатрическую экспертизу.

Доктор Беккер использует экспериментальные методы лечения, вводя Старксу новейшие препараты. После инъекций Старксу надевают смирительную рубашку и помещают в подвал. В наркотическом опьянении мысли Старкса устремляются в будущее, где он встречает Джеки и узнает, что ему осталось жить 4 дня. Вместе с Джеки он ищет возможность убежать от судьбы.

  • Мировая премьера: 23 января 2005, ...
  • Российская премьера: 19 мая 2005, «Централ Партнершип»


Качество видео: BDRip

Продолжительность: 01:42:55

Формат: MKV
Видео: кодек: x264, формат: mkv, размер кадра: 1024x424, битрейт: 2199 kbps
Аудио #1: язык: русский, перевод: дублированный (дубляж), кодек: AC3 5.1, битрейт: 384 kbps
Аудио #2: язык: русский, перевод: двухголосый закадровый, кодек: AC3 5.1, битрейт: 384 kbps
Аудио #3: язык: английский, перевод: оригинал, кодек: AC3 5.1, битрейт: 384 kbps
Субтитры #1: тип: вшитые отключаемые, язык: русский, формат: S_TEXT/UTF8
Субтитры #2: тип: вшитые отключаемые, язык: русский, формат: S_TEXT/UTF8
Субтитры #3: тип: вшитые отключаемые, язык: английский, формат: S_TEXT/UTF8

P.S. Без любой одной дороги 1/2 DVD5.... (2.18 Gb)

Семпл 1 на multi-up
Семпл 2 на multi-up

Скриншоты сравнения с похожим релизом by HQVideo
Скриншоты сравнения с Оригиналом (в разрешении оригинала)

Релиз группы:
General
Complete name : The_Jacket.2005.BDRip.AVCbyGUree.mkv
Format : Matroska
Format version : Version 2
File size : 2.46 GiB
Duration : 1h 42mn
Overall bit rate : 3 420 Kbps
Movie name : =GUree=-
Encoded date : UTC 2011-09-28 22:14:31
Writing application : mkvmerge v4.9.1 ('Ich will') сборка от Jul 11 2011 23:53:15
Writing library : libebml v1.2.1 + libmatroska v1.1.1

Video
ID : 1
Format : AVC
Format/Info : Advanced Video Codec
Format profile : High@L4.1
Format settings, CABAC : Yes
Format settings, ReFrames : 8 frames
Muxing mode : Header stripping
Codec ID : V_MPEG4/ISO/AVC
Duration : 1h 42mn
Bit rate : 2 269 Kbps
Width : 1 024 pixels
Height : 424 pixels
Display aspect ratio : 2.40:1
Frame rate : 23.976 fps
Color space : YUV
Chroma subsampling : 4:2:0
Bit depth : 8 bits
Scan type : Progressive
Bits/(Pixel*Frame) : 0.218
Stream size : 1.58 GiB (64%)
Writing library : x264 core 116 r2074 2641b9e
Encoding settings : cabac=1 / ref=8 / deblock=1:-2:-1 / analyse=0x3:0x113 / me=tesa / subme=10 / psy=1 / psy_rd=1.00:0.40 / mixed_ref=1 / me_range=32 / chroma_me=1 / trellis=2 / 8x8dct=1 / cqm=0 / deadzone=21,11 / fast_pskip=0 / chroma_qp_offset=-4 / threads=6 / sliced_threads=0 / nr=0 / decimate=0 / interlaced=0 / bluray_compat=0 / constrained_intra=0 / bframes=10 / b_pyramid=2 / b_adapt=2 / b_bias=0 / direct=3 / weightb=1 / open_gop=0 / weightp=2 / keyint=250 / keyint_min=23 / scenecut=40 / intra_refresh=0 / rc_lookahead=60 / rc=2pass / mbtree=1 / bitrate=2269 / ratetol=1.0 / qcomp=0.75 / qpmin=0 / qpmax=69 / qpstep=4 / cplxblur=20.0 / qblur=0.5 / vbv_maxrate=50000 / vbv_bufsize=50000 / nal_hrd=none / ip_ratio=1.40 / aq=1:0.90

Audio #1
ID : 2
Format : AC-3
Format/Info : Audio Coding 3
Mode extension : CM (complete main)
Muxing mode : Header stripping
Codec ID : A_AC3
Duration : 1h 42mn
Bit rate mode : Constant
Bit rate : 384 Kbps
Channel(s) : 6 channels
Channel positions : Front: L C R, Side: L R, LFE
Sampling rate : 48.0 KHz
Bit depth : 16 bits
Compression mode : Lossy
Stream size : 283 MiB (11%)
Title : AC3 5.1 384Kb/s (Dub)
Language : Russian

Audio #2
ID : 3
Format : AC-3
Format/Info : Audio Coding 3
Mode extension : CM (complete main)
Muxing mode : Header stripping
Codec ID : A_AC3
Duration : 1h 42mn
Bit rate mode : Constant
Bit rate : 384 Kbps
Channel(s) : 6 channels
Channel positions : Front: L C R, Side: L R, LFE
Sampling rate : 48.0 KHz
Bit depth : 16 bits
Compression mode : Lossy
Stream size : 283 MiB (11%)
Title : AC3 5.1 384Kb/s (MVO;Tycoon-Studio)
Language : Russian

Audio #3
ID : 4
Format : AC-3
Format/Info : Audio Coding 3
Mode extension : CM (complete main)
Muxing mode : Header stripping
Codec ID : A_AC3
Duration : 1h 42mn
Bit rate mode : Constant
Bit rate : 384 Kbps
Channel(s) : 6 channels
Channel positions : Front: L C R, Side: L R, LFE
Sampling rate : 48.0 KHz
Bit depth : 16 bits
Compression mode : Lossy
Stream size : 283 MiB (11%)
Title : AC3 5.1 384Kb/s
Language : English

Text #1
ID : 5
Format : UTF-8
Codec ID : S_TEXT/UTF8
Codec ID/Info : UTF-8 Plain Text
Title : R5
Language : Russian

Text #2
ID : 6
Format : UTF-8
Codec ID : S_TEXT/UTF8
Codec ID/Info : UTF-8 Plain Text
Title : Tycoon-Studio
Language : Russian

Text #3
ID : 7
Format : UTF-8
Codec ID : S_TEXT/UTF8
Codec ID/Info : UTF-8 Plain Text
Language : English






Этот торрент недоступен для скачивания без регистрации, однако доступен по публичной magnet-ссылке (источники с публичных трекеров). Перед использованием ссылки прочтите, пожалуйста Пользовательское соглашение, а также как можно дольше оставайтесь на раздаче! Для того, чтобы скачать сам торрент-файл (который видит больше источников), а также для того, чтобы поблагодарить релизера, вам необходимо зарегистрироваться. Если регистрироваться лень - вы можете также попробовать скачать релиз по нашим партнерским ссылкам ниже.

[underverse.su].t15707.torrent
Трекер: Зарегистрирован   [ 29.09.2011 11:47 ]  

Статус: проверено (by GUree at 29.09.2011 12:10)
Поблагодарили: пока никто не поблагодарил...
Тип торрента: публичный - доступные источники с открытых трекеров: 
Размер: 2,46 GB (занимает 0,56 DVDR, для записи нужно 1 болванка DVDR/RW)
 
 
Похожие темы
Форум Тема Автор Торрент Отв. Посл. сооб.
Зарубежное кино [DVDRip, Low-Res HDRip, и т.д.] Пиджак / The Jacket (Джон Мэйбери) [2005 г., Фантастика, Триллер, Драма, BDRip-AVC] Dub (RUS) + DVO (RUS, Tycoon-Studio) + AVO (RUS, А. Карповский) + MVO (UKR, Так Треба Продакшн) + DVO (UKR, Старий... Ведьмочка
4 | 0

0 | 668

21

14.10.2014 22:04

Зарубежное кино [DVD / HDDVD / BD / Remux] Пиджак / The Jacket (Джон Мэйбери / John Maybury) [2005 г., драма, Blu-ray Disc] Dub + DVO TERRAN
7 | 0

0 | 1120

3

04.04.2013 16:16

Зарубежное кино [HDDVDRip / BDRip / WEB-DL / HDTV 1080/720р] Пиджак / The Jacket (Джон Мэйбери) [2005 г., Фантастика, Триллер, Драма, BDRip 720p] Dub (RUS) + DVO (RUS, Tycoon-Studio) + Original (ENG) + Subs (RUS, ENG) Ведьмочка
29 | 0

0 | 937

20

07.08.2014 22:48

Зарубежное кино [HDDVDRip / BDRip / WEB-DL / HDTV 1080/720р] Пиджак / The Jacket (Джон Мэйбери) [2005 г., Фантастика, Триллер, Драма, BDRip 1080p] Dub (RUS) + DVO (RUS, Tycoon-Studio) + Original (ENG) + Subs (RUS, ENG) Ведьмочка
40 | 0

0 | 587

9

14.10.2014 15:19


Яндекс.Метрика powered by Sphinx


В Н И М А Н И Е
Сайт не распространяет и не хранит электронные версии произведений, а лишь бесплатно и без коммерческой выгоды (не требуя взамен платы,
SMS и т.д.) предоставляет доступ к создаваемому пользователями каталогу ссылок на торрент-файлы, которые содержат только списки хеш-сумм.
Убедительная просьба с жалобами обращаться напрямую к пользователю, разместившему торрент файл.

Вверх