Loading...
Error

Баллада о Бомбере (Виталий Воробьев) [2011 г., военный, DVDRip]

Статистика раздачи
Размер:  5,83 GB   |    Зарегистрирован:  5 лет 6 месяцев   |    Скачан:  7 раз

Полного источника не было: 2 года 5 месяцев

Сидов:  0  |  0 KB/s  ]   Личеров:  0  |  0 KB/s  ]

* - сиды/пиры с внешних источников

   
 
Автор Сообщение

GUree Пол:Муж

30-Май-2011 00:19

Баллада о Бомбере


Год выпуска: 2011
Жанр: военный
Страна: Россия , Украина
Режиссер: Виталий Воробьев
В ролях: Екатерина Астахова, Никита Ефремов, Александр Давыдов (II), Виктория Толстоганова, Нина Усатова, Владимир Ильин, Борис Каморзин, Тимофей Трибунцев, Егор Баринов, Владислав Абашин, Юрий Гурьев, Андрей Гусев, Евгений Ефремов, Сергей Калантай, Алексей Шемес

Сюжет фильма: Во время Второй мировой войны на территории, оккупированной немцами, разбивается советский самолет, но летевшие в нем на задание летчик Гривцов и его возлюбленная радистка Катя чудом спасаются. Удалось выжить и штурману Линько. Каждому из них теперь придется найти свой путь, чтобы выполнить боевое задание, вернуться к своим, и выжить…

Доп. информация: Из 2DVD по 4 серии 7.65 GB (03:27:12) + 7.59 GB (03:26:06), сделано 2 серии 2.92 GB (03:15:36) + 2.92 GB (03:13:39).
Убраны титры и краткие содержания...

  • Мировая премьера: 9 мая 2011
  • Российская премьера: 25 апреля 2011


Личная оценка: 10 - всем советую

Качество видео: DVDRip

Продолжительность: 03:15:36+03:13:39
Видео: кодек: x264, формат: mkv, размер кадра: 720@1024x576, битрейт: 1708 kbps/1728 kbps
Аудио: язык: русский, перевод: оригинал, кодек: AC3 5.1, битрейт: 384 kbps

Семпл 1 на multi-up
Семпл 2 на multi-up
Семпл 3 на multi-up
Семпл 4 на multi-up

Релиз группы:






General
Complete name : F:\AVC RU\Ballada.o.bombere.1_2.2011.DVDRipAVC\Ballada.o.bombere_1.2011.DVDRipAVC.mkv
Format : Matroska
File size : 2.92 GiB/2.92 GiB
Duration : 3h 15mn/3h 13mn
Overall bit rate : 2 135 Kbps/2 156 Kbps
Encoded date : UTC 2011-05-29 08:32:53
Writing application : mkvmerge v4.8.0 ('I Got The...') сборка от May 24 2011 03:12:58
Writing library : libebml v1.2.0 + libmatroska v1.1.0

Video
ID : 1
Format : AVC
Format/Info : Advanced Video Codec
Format profile : High@L4.1
Format settings, CABAC : Yes
Format settings, ReFrames : 8 frames
Codec ID : V_MPEG4/ISO/AVC
Duration : 3h 15mn/3h 13mn
Bit rate : 1 749 Kbps/1 770 Kbps
Width : 720 pixels
Height : 576 pixels
Display aspect ratio : 16:9
Frame rate : 25.000 fps
Standard : PAL
Color space : YUV
Chroma subsampling : 4:2:0
Bit depth : 8 bits
Scan type : Progressive
Bits/(Pixel*Frame) : 0.169/0.171
Stream size : 2.33 GiB (80%)/2.34 GiB (80%)
Writing library : x264 core 115 r1937 aa21558
Encoding settings : cabac=1 / ref=8 / deblock=1:-2:-1 / analyse=0x3:0x113 / me=tesa / subme=10 / psy=1 / psy_rd=1.00:0.40 / mixed_ref=1 / me_range=32 / chroma_me=1 / trellis=2 / 8x8dct=1 / cqm=0 / deadzone=21,11 / fast_pskip=0 / chroma_qp_offset=-4 / threads=6 / sliced_threads=0 / nr=0 / decimate=0 / interlaced=0 / bluray_compat=0 / constrained_intra=0 / bframes=10 / b_pyramid=2 / b_adapt=2 / b_bias=0 / direct=3 / weightb=1 / open_gop=0 / weightp=2 / keyint=250 / keyint_min=25 / scenecut=40 / intra_refresh=0 / rc_lookahead=60 / rc=2pass / mbtree=1 / bitrate=1749/1770 / ratetol=1.0 / qcomp=0.75 / qpmin=0 / qpmax=69 / qpstep=4 / cplxblur=20.0 / qblur=0.5 / vbv_maxrate=50000 / vbv_bufsize=50000 / nal_hrd=none / ip_ratio=1.40 / aq=1:0.90

Audio
ID : 2
Format : AC-3
Format/Info : Audio Coding 3
Mode extension : CM (complete main)
Codec ID : A_AC3
Duration : 3h 15mn/3h 13mn
Bit rate mode : Constant
Bit rate : 384 Kbps
Channel(s) : 6 channels
Channel positions : Front: L C R, Side: L R, LFE
Sampling rate : 48.0 KHz
Bit depth : 16 bits
Compression mode : Lossy
Stream size : 537 MiB (18%)/532 MiB (18%)
Размер: 2x2.91 GB

Этот торрент недоступен для скачивания без регистрации, однако доступен по публичной magnet-ссылке (источники с публичных трекеров). Перед использованием ссылки прочтите, пожалуйста Пользовательское соглашение, а также как можно дольше оставайтесь на раздаче! Для того, чтобы скачать сам торрент-файл (который видит больше источников), а также для того, чтобы поблагодарить релизера, вам необходимо зарегистрироваться. Если регистрироваться лень - вы можете также попробовать скачать релиз по нашим партнерским ссылкам ниже.

[underverse.su].t14958.torrent
Трекер: Зарегистрирован   [ 30.05.2011 00:19 ]  

Статус: проверено (by Паукан at 31.05.2011 04:44)
Поблагодарили: 1 человек
Тип торрента: публичный - доступные источники с открытых трекеров: 
Размер: 5,83 GB (занимает 1,33 DVDR, для записи нужно 2 болванки DVDR/RW)
 
 
Похожие темы
Форум Тема Автор Торрент Отв. Посл. сооб.
Кино СССР Баллада о солдате (Григорий Чухрай) [1959 г., драма, военный, DVDRip] 90ytr90
0 | 0

0 | 2293

14

12.12.2013 18:26

xUSSR сериалы Баллада о бомбере / Серии: 8 из 8 (Виталий Воробьев ) [2011 г., Военный фильм, DVDRip] МУХА~
0 | 0

2 | 894

18

11.06.2011 18:33

Наше кино [DVD / HDDVD / BD / Remux] Баллада о Бомбере (Виталий Воробьев) [2011, военный, Blu-ray disc, 1080p] uzi2009
1 | 0

0 | 1493

0

06.03.2014 14:07

Наше кино [DVD / HDDVD / BD / Remux] Баллада о солдате (Григорий Чухрай) [1959, СССР, Военный, драма, мелодрама, ВОВ, Blu-ray Disc 1080p] uzi2009
9 | 1

0 | 978

4

16.07.2014 07:48


Яндекс.Метрика powered by Sphinx


В Н И М А Н И Е
Сайт не распространяет и не хранит электронные версии произведений, а лишь бесплатно и без коммерческой выгоды (не требуя взамен платы,
SMS и т.д.) предоставляет доступ к создаваемому пользователями каталогу ссылок на торрент-файлы, которые содержат только списки хеш-сумм.
Убедительная просьба с жалобами обращаться напрямую к пользователю, разместившему торрент файл.

Вверх