Loading...
Error

Санктум / Sanctum (Алистер Грирсон) [2011, боевик, триллер, драма, приключения, DVDRip]

 
Автор Сообщение

_Dante_ Пол:Муж

23-Фев-2011 16:05


Санктум / Sanctum
«Единственное спасение - глубина»

Год выпуска: 2011
Страна: США
Жанр: боевик, триллер, драма, приключения
Режиссер: Алистер Грирсон

Ричард Роксбург (Frank), Риз Уэйкфилд (Josh), Йоан Гриффит (Carl), Элис Паркинсон (Victoria), Дэниэл Уилли (Crazy George), Кристофер Бэйкер (J.D.), Элисон Крэтчли (Judes), Крамер Кэйн (Luko), Эндрю Хансен (Dex), Джон Гарвин (Jim Sergeant), Шон Деннехи (Chopper Pilot), Nea Diap (Kastom Shaman)
Группа дайверов предпринимает очень рискованную экспедицию в самую большую систему пещер на Земле — невероятно красивую и почти недоступную. Неожиданный тропический шторм вынуждает их спуститься глубоко в пещеры. Единственное спасение для исследователей — найти неизвестный второй выход к морю, преодолевая неистовую стихию бушующих вод, коварные ловушки подземелий и смертельный ужас…
  • Бюджет: $30 000 000
  • Сборы в США: $22 277 775
  • Сборы в России: $7 872 544
  • Сборы в мире: $48 577 775

  • Мировая премьера: 3 февраля 2011





Качество: DVDRip
Продолжительность: 01:44:22

Видео: кодек: XviD, размер кадра: 720x384, битрейт: 1483 kbps avg
Аудио: язык: русский, перевод: Дублированное [лицензия], кодек: AC3, битрейт: 384.00 kbps avg

Download Для того, чтобы скачать этот торрент, необходимо залогиниться! Если у Вас нет логина на нашем трекере - зарегистрируйтесь, и он у Вас будет.

Как качать с торрент трекера  ·   Что такое torrent (торрент)  ·   Рейтинг и ограничения

 
Похожие темы
Форум Тема Автор Торрент Отв. Посл. сооб.
Зарубежное кино [DVDRip, Low-Res HDRip, и т.д.] Санктум / Sanctum (Алистер Грирсон) [2011 г., триллер, драма, приключения, DVDRip] BartSimpson
0 | 0

0 | 702

6

25.02.2011 08:47

Зарубежное кино [DVD / HDDVD / BD / Remux] Санктум / Sanctum (Алистер Грирсон ) [2011 г., боевик, триллер, драма, приключения , DVD-9] SKRiptus
0 | 0

2 | 1015

5

11.06.2011 16:36

izma 

25-Фев-2011 16:48

и не стыдно оцифровку за дивиди выдавать?!

_Dante_ Пол:Муж

25-Фев-2011 17:47

izma
Ты о чём? Это DVDRip!!
General
Complete name : G:\Sanktum.2011.D.DVDRip.ELEKTRI4KA.avi
Format : AVI
Format/Info : Audio Video Interleave
File size : 1.37 GiB
Duration : 1h 44mn
Overall bit rate : 1 877 Kbps
Writing application : VirtualDubMod 1.5.4.1 (build 2178/release)
Writing library : VirtualDubMod build 2178/release

Video
ID : 0
Format : MPEG-4 Visual
Format profile : AdvancedSimple@L5
Format settings, BVOP : Yes
Format settings, QPel : No
Format settings, GMC : No warppoints
Format settings, Matrix : Custom
Codec ID : XVID
Codec ID/Hint : XviD
Duration : 1h 44mn
Bit rate : 1 483 Kbps
Width : 720 pixels
Height : 384 pixels
Display aspect ratio : 1.875
Frame rate : 25.000 fps
Resolution : 24 bits
Colorimetry : 4:2:0
Scan type : Progressive
Bits/(Pixel*Frame) : 0.215
Stream size : 1.08 GiB (79%)
Writing library : XviD 58

Audio
ID : 1
Format : AC-3
Format/Info : Audio Coding 3
Codec ID : 2000
Duration : 1h 44mn
Bit rate mode : Constant
Bit rate : 384 Kbps
Channel(s) : 6 channels
Channel positions : Front: L C R, Surround: L R, LFE
Sampling rate : 48.0 KHz
Stream size : 287 MiB (20%)
Alignment : Split accross interleaves
Interleave, duration : 40 ms (1.00 video frame)
Interleave, preload duration : 500 ms

Driftwood Пол:Муж

01-Мар-2011 22:50

стоит качать вообще?

ololoev 

02-Мар-2011 10:16

Как то не очень кино, "Спуск" из подобной тематики больше понравился.

Яндекс.Метрика powered by Sphinx


В Н И М А Н И Е
Сайт не распространяет и не хранит электронные версии произведений, а лишь бесплатно и без коммерческой выгоды (не требуя взамен платы,
SMS и т.д.) предоставляет доступ к создаваемому пользователями каталогу ссылок на торрент-файлы, которые содержат только списки хеш-сумм.
Убедительная просьба с жалобами обращаться напрямую к пользователю, разместившему торрент файл.

Вверх