Loading...
Error

Не шутите с Zоханом! / You Don't Mess with the Zohan [Unrated] (Дэннис Дуган) [2008 г., боевик, комедия, драма, BDRip] Dub

Статистика раздачи
Размер:  2,17 GB   |    Зарегистрирован:  4 года   |    Скачан:  13 раз

Полного источника не было: 9 часов

Сидов:  0  |  0 KB/s  ]   Личеров:  0  |  0 KB/s  ]

* - сиды/пиры с внешних источников

   
 
Автор Сообщение

Печаль'ka Пол:Жен

04-Апр-2009 14:20

Не шутите с Zоханом! / You Don't Mess with the Zohan [Unrated]


Год выпуска: 2008
Жанр: боевик, драма, комедия
Страна: США
Режиссер: Деннис Дуган
В ролях: Адам Сэндлер, Джон Туртурро, Эммануэль Шрики, Ник Свардсон, Лэйни Казан, Идо Моссери, Роб Шнайдер, Дэйв Мэтьюз, Майкл Баффер, Шарлотта Рэй
Сюжет фильма:
Зохан — израильский коммандос, агент Моссада и антитеррорист — во время захвата известного мирового преступника инсценирует собственную гибель, дабы завязать с героическим прошлым и осуществить свою давнюю мечту: стать стилистом в Нью-Йорке. Вооружившись ножницами и желанным руководством, он решает начать свою карьеру в небольшом салоне.

Слава о повышенном внимании к деталям и оказании особого сервиса быстро распространяется среди представительниц прекрасного пола, и желающих оказаться в его кресле становится пруд пруди. Но внезапно его узнают и над романтически настроенным Зоханам нависает угроза потерять не только полюбившуюся карьеру, но на этот раз и собственную жизнь.

  • Мировая премьера: 6 июня 2008
  • Российская премьера: 19 июня 2008, «BVSPR»


Качество видео: BDRip [BD-remux / HANSMER]

Продолжительность: 01:56:53
Формат: avi
Видео: XviD, 720x384, 2198 kbps
Аудио #1: русский, дублированный, AC3 5.1, 448 kbps (есть места без перевода, так как это Unrated версия)
Аудио #2: английский, оригинал, AC3 5.1, 448 kbps (отдельным файлом)
Субтитры #1: внешние, SRT, русский
Субтитры #2: внешние, SRT, русский (на места без перевода)
Субтитры #3: внешние, SRT, английский
Субтитры #4: внешние, SRT, английский SDH

Код:

General
Complete name                    : D:\Video\Movies\Releases\You.Don't.Mess.with.the.Zohan.Unrated.2008.BDRip.XviD.AC3.Rus.D.HQ.Underverse.avi
Format                           : AVI
Format/Info                      : Audio Video Interleave
Format profile                   : OpenDML
File size                        : 2.17 GiB
Duration                         : 1h 56mn
Overall bit rate                 : 2 658 Kbps
Writing application              : VirtualDubMod 1.5.10.2 (build 2540/release)
Writing library                  : VirtualDubMod build 2540/release

Video
ID                               : 0
Format                           : MPEG-4 Visual
Format profile                   : Streaming Video@L1
Format settings, BVOP            : Yes
Format settings, QPel            : No
Format settings, GMC             : No warppoints
Format settings, Matrix          : Custom
Muxing mode                      : Packed bitstream
Codec ID                         : XVID
Codec ID/Hint                    : XviD
Duration                         : 1h 56mn
Bit rate                         : 2 198 Kbps
Width                            : 720 pixels
Height                           : 384 pixels
Display aspect ratio             : 1.875
Frame rate                       : 23.976 fps
Resolution                       : 24 bits
Colorimetry                      : 4:2:0
Scan type                        : Progressive
Bits/(Pixel*Frame)               : 0.332
Stream size                      : 1.79 GiB (83%)
Writing library                  : XviD 64

Audio
ID                               : 1
Format                           : AC-3
Format/Info                      : Audio Coding 3
Codec ID                         : 2000
Duration                         : 1h 56mn
Bit rate mode                    : Constant
Bit rate                         : 448 Kbps
Channel(s)                       : 6 channels
Channel positions                : Front: L C R, Surround: L R, LFE
Sampling rate                    : 48.0 KHz
Stream size                      : 375 MiB (17%)
Alignment                        : Split accross interleaves
Interleave, duration             : 42 ms (1.00 video frame)
Interleave, preload duration     : 500 ms
Title                            : You.Don't.Mess.with.the.Zohan.2008.AC3.Rus.D.448.kbps.HQ.Underverse.ac3

General
Complete name                    : D:\Video\Movies\Releases\You.Don't.Mess.with.the.Zohan.Unrated.2008.BDRip.XviD.AC3.Rus.D.HQ.Underverse.Eng.ac3
Format                           : AC-3
Format/Info                      : Audio Coding 3
File size                        : 375 MiB
Duration                         : 1h 56mn
Overall bit rate                 : 448 Kbps

Audio
Format                           : AC-3
Format/Info                      : Audio Coding 3
Duration                         : 1h 56mn
Bit rate mode                    : Constant
Bit rate                         : 448 Kbps
Channel(s)                       : 6 channels
Channel positions                : Front: L C R, Surround: L R, LFE
Sampling rate                    : 48.0 KHz
Stream size                      : 375 MiB (100%)

Семпл: http://multi-up.com/798993

Релиз группы:

picpicpic
Для увеличения картинки щелкните мышкой по превью

Этот торрент недоступен для скачивания без регистрации, однако доступен по публичной magnet-ссылке (источники с публичных трекеров). Перед использованием ссылки прочтите, пожалуйста Пользовательское соглашение, а также как можно дольше оставайтесь на раздаче! Для того, чтобы скачать сам торрент-файл (который видит больше источников), а также для того, чтобы поблагодарить релизера, вам необходимо зарегистрироваться. Если регистрироваться лень - вы можете также попробовать скачать релиз по нашим партнерским ссылкам ниже.

[underverse.su].t1087.torrent
Трекер: Зарегистрирован   [ 04.12.2012 16:44 ]  

Статус: проверено (by garry at 04.12.2012 16:48)
Поблагодарили: 2 человека
Тип торрента: публичный - доступные источники с открытых трекеров: 
Размер: 2,17 GB (занимает 1/2 DVDR, для записи нужно 1 болванка DVDR/RW)
 
 
Похожие темы
Форум Тема Автор Торрент Отв. Посл. сооб.
Зарубежное кино [DVDRip, Low-Res HDRip, и т.д.] Не шутите с Zоханом! / You Don't Mess with the Zohan (Дэннис Дуган / Dennis Dugan) [2008 г., боевик, комедия, HDRip] [Unrated Cut] Dub 90ytr90
63 | 2

0 | 534

3

11.06.2016 17:15

Зарубежное кино [DVDRip, Low-Res HDRip, и т.д.] Не шутите с Zоханом! / You Don't Mess with the Zohan (Дэннис Дуган / Dennis Dugan) [2008 г., боевик, комедия, HDRip] [Theatrical Cut] Dub + hardsub (Rus) 90ytr90
20 | 0

0 | 543

3

11.06.2016 17:27

Зарубежное кино [DVDRip, Low-Res HDRip, и т.д.] Не шутите с Zоханом! / You Don't Mess with the Zohan (Дэннис Дуган / Dennis Dugan) [2008 г., боевик, комедия, BDRip] [Theatrical Cut] Dub + Original (Eng) 90ytr90
5 | 0

0 | 596

2

11.06.2016 18:10

Зарубежное кино [HDDVDRip / BDRip / WEB-DL / HDTV 1080/720р] Не шутите с Zоханом! / You Don't Mess with the Zohan (Дэннис Дуган / Dennis Dugan) [2008 г., боевик, комедия, BDRip 720p] [Theatrical Cut] Dub + Sub (Rus, Ukr) 90ytr90
19 | 2

0 | 514

1

11.06.2016 18:21


Яндекс.Метрика powered by Sphinx


В Н И М А Н И Е
Сайт не распространяет и не хранит электронные версии произведений, а лишь бесплатно и без коммерческой выгоды (не требуя взамен платы,
SMS и т.д.) предоставляет доступ к создаваемому пользователями каталогу ссылок на торрент-файлы, которые содержат только списки хеш-сумм.
Убедительная просьба с жалобами обращаться напрямую к пользователю, разместившему торрент файл.

Вверх