Loading...
Error

Американец / The American (Антон Корбайн / Anton Corbijn) [2010 г., драма, криминальный, BDRip]

Статистика раздачи
Размер:  2,2 GB   |    Зарегистрирован:  5 лет 9 месяцев   |    Скачан:  2 раза

Полного источника не было: 4 года 4 месяца

Сидов:  0  |  0 KB/s  ]   Личеров:  0  |  0 KB/s  ]

* - сиды/пиры с внешних источников

   
 
Автор Сообщение

GUree Пол:Муж

11-Фев-2011 18:25

Американец / The American


Год выпуска: 2010
Жанр: драма, криминальный
Страна: США
Режиссер: Антон Корбайн / Anton Corbijn
В ролях: Джордж Клуни, Ирина Бьёрклунд, Ларс Эльм, Йохан Лейзен, Паоло Боначелли, Джорджо Гобби, Сильвана Бози, Текла Рютен, Guido Palliggiano, Самули Ваурамо

Сюжет фильма: После провала очередной операции и гибели любовницы профессиональный киллер Джек решает завершить свою карьеру.
Остается последнее дело, заказанное ему таинственной женщиной, для выполнения которого он тайно едет в Италию и поселяется в маленьком городке, затерявшемся в живописных горах.
Здесь неожиданно для себя самого Джек сближается с местным священником и влюбляется в красавицу Клару.
Впервые в жизни раскрывается сердце человека, вынужденного таиться всю свою жизнь.
Джек спокоен и счастлив настолько, что теряет бдительность…


  • Мировая премьера: 1 сентября 2010
  • Российская премьера: 1 сентября 2010, «Парадиз»




Личная оценка: 10 - всем советую

Качество видео: BDRip

Продолжительность: 01:44:55
Видео: кодек: x264, формат: mkv, размер кадра: 1024x432, битрейт: 2172 kbps
Аудио #1: язык: русский, перевод: дублированный (дубляж), кодек: AC3 5.1, битрейт: 384 kbps
Аудио #2: язык: английский, перевод: оригинал, кодек: AC3 5.1, битрейт: 384 kbps
Субтитры #1: тип: вшитые отключаемые, язык: русский, формат: S_TEXT/UTF8
Субтитры #2: тип: вшитые отключаемые, язык: английский, формат: S_TEXT/UTF8

Семпл 1 на multi-up
Семпл 2 на multi-up

Релиз группы:








General
Complete name : The_American.2010.BDRip.AVCbyGUree.mkv
Format : Matroska
File size : 2.20 GiB
Duration : 1h 44mn
Overall bit rate : 3 000 Kbps
Movie name : -=GUree=-
Encoded date : UTC 2011-02-11 18:11:55
Writing application : mkvmerge v4.5.0 ('Speed of Light') сборка от Feb 1 2011 02:10:32
Writing library : libebml v1.2.0 + libmatroska v1.1.0

Video
ID : 1
Format : AVC
Format/Info : Advanced Video Codec
Format profile : High@L4.1
Format settings, CABAC : Yes
Format settings, ReFrames : 10 frames
Codec ID : V_MPEG4/ISO/AVC
Duration : 1h 44mn
Bit rate : 2 230 Kbps
Width : 1 024 pixels
Height : 432 pixels
Display aspect ratio : 2.35:1
Frame rate : 23.976 fps
Color space : YUV
Chroma subsampling : 4:2:0
Bit depth : 8 bits
Scan type : Progressive
Bits/(Pixel*Frame) : 0.210
Stream size : 1.59 GiB (72%)
Writing library : x264 core 112 r1834 a51816a
Encoding settings : cabac=1 / ref=10 / deblock=1:-2:-1 / analyse=0x3:0x113 / me=tesa / subme=10 / psy=1 / psy_rd=1.00:0.40 / mixed_ref=1 / me_range=32 / chroma_me=1 / trellis=2 / 8x8dct=1 / cqm=0 / deadzone=21,11 / fast_pskip=0 / chroma_qp_offset=-4 / threads=6 / sliced_threads=0 / nr=0 / decimate=0 / interlaced=0 / constrained_intra=0 / bframes=8 / b_pyramid=2 / b_adapt=2 / b_bias=0 / direct=3 / weightb=1 / open_gop=0 / weightp=2 / keyint=250 / keyint_min=23 / scenecut=40 / intra_refresh=0 / rc_lookahead=60 / rc=2pass / mbtree=1 / bitrate=2230 / ratetol=1.0 / qcomp=0.75 / qpmin=0 / qpmax=51 / qpstep=4 / cplxblur=20.0 / qblur=0.5 / vbv_maxrate=50000 / vbv_bufsize=50000 / ip_ratio=1.40 / aq=1:0.90 / nal_hrd=none

Audio #1
ID : 2
Format : AC-3
Format/Info : Audio Coding 3
Mode extension : CM (complete main)
Codec ID : A_AC3
Duration : 1h 44mn
Bit rate mode : Constant
Bit rate : 384 Kbps
Channel(s) : 6 channels
Channel positions : Front: L C R, Side: L R, LFE
Sampling rate : 48.0 KHz
Bit depth : 16 bits
Compression mode : Lossy
Stream size : 288 MiB (13%)
Title : AC3 5.1 384Kb/s
Language : Russian

Audio #2
ID : 3
Format : AC-3
Format/Info : Audio Coding 3
Mode extension : CM (complete main)
Codec ID : A_AC3
Duration : 1h 44mn
Bit rate mode : Constant
Bit rate : 384 Kbps
Channel(s) : 6 channels
Channel positions : Front: L C R, Side: L R, LFE
Sampling rate : 48.0 KHz
Bit depth : 16 bits
Compression mode : Lossy
Stream size : 288 MiB (13%)
Title : AC3 5.1 384Kb/s
Language : English

Text #1
ID : 4
Format : UTF-8
Codec ID : S_TEXT/UTF8
Codec ID/Info : UTF-8 Plain Text
Language : Russian

Text #2
ID : 5
Format : UTF-8
Codec ID : S_TEXT/UTF8
Codec ID/Info : UTF-8 Plain Text
Language : English

Этот торрент недоступен для скачивания без регистрации, однако доступен по публичной magnet-ссылке (источники с публичных трекеров). Перед использованием ссылки прочтите, пожалуйста Пользовательское соглашение, а также как можно дольше оставайтесь на раздаче! Для того, чтобы скачать сам торрент-файл (который видит больше источников), а также для того, чтобы поблагодарить релизера, вам необходимо зарегистрироваться. Если регистрироваться лень - вы можете также попробовать скачать релиз по нашим партнерским ссылкам ниже.

[underverse.su].t13620.torrent
Трекер: Зарегистрирован   [ 11.02.2011 18:25 ]  

Статус: проверено (by GUree at 11.02.2011 18:31)
Поблагодарили: пока никто не поблагодарил...
Тип торрента: публичный - доступные источники с открытых трекеров: 
Размер: 2,2 GB (занимает 0,5 DVDR, для записи нужно 1 болванка DVDR/RW)
 
 
Похожие темы
Форум Тема Автор Торрент Отв. Посл. сооб.
Зарубежное кино [DVDRip, Low-Res HDRip, и т.д.] Американец / The American (Антон Корбейн) [2010 г., драма, криминал, BDRip] Dub + Original garry
2 | 0

0 | 825

10

17.02.2013 22:59

Архив Американец / The American (Антон Корбайн ) [2010 г., драма, триллер, криминальный, DVD-9] SKRiptus
0 | 0

1 | 1026

3

16.06.2011 08:09

Архив Американец / The American (Антон Корбайн) [2010 г., триллер, драма, криминал, DVD-5] andrej-ku
0 | 0

2 | 739

5

05.11.2011 14:45



Последний раз редактировалось: GUree (08.02.2012 08:55), всего редактировалось 1 раз

sexfuck 

21-Май-2011 04:37

клева

Яндекс.Метрика powered by Sphinx


В Н И М А Н И Е
Сайт не распространяет и не хранит электронные версии произведений, а лишь бесплатно и без коммерческой выгоды (не требуя взамен платы,
SMS и т.д.) предоставляет доступ к создаваемому пользователями каталогу ссылок на торрент-файлы, которые содержат только списки хеш-сумм.
Убедительная просьба с жалобами обращаться напрямую к пользователю, разместившему торрент файл.

Вверх