Loading...
Error

Сумасшедший дом / Madhouse (Том Ропелевски / Tom Ropelewski) [1990 г., комедия, HDTVRip]

Статистика раздачи
Размер:  2,07 GB   |    Зарегистрирован:  5 лет 10 месяцев   |    Скачан:  2 раза

Полного источника не было: 4 года 4 месяца

Сидов:  0  |  0 KB/s  ]   Личеров:  0  |  0 KB/s  ]

* - сиды/пиры с внешних источников

   
 
Автор Сообщение

GUree Пол:Муж

08-Фев-2011 22:39

Сумасшедший дом / Madhouse


Год выпуска: 1990
Жанр: комедия
Страна: США
Режиссер: Том Ропелевски / Tom Ropelewski
В ролях: Джон Ларрокетт, Керсти Элли, Джон Дил, Джессика Ланди, Брэдли Грегг, Деннис Миллер, Роберт Гинти

Сюжет фильма: Марку и Джесси везет в жизни. У них есть все, о чем можно мечтать: счастливый брак, прекрасная работа, и недавно приобретенный дом в Санта-Монике почти на берегу океана, в котором они могут наслаждаться одиночеством вдвоем. Но вот один за другим к ним на постой потянулись многочисленные родственники, число непрошеных гостей достигает критической точки, и уютное семейное гнездышко превращается в настоящий «сумасшедший дом».

Супруги не только должны спать на кухонном полу и терпеливо дожидаться позволения войти в собственную ванную — они даже не могут побыть наедине друг с другом. И когда один из гостей приводит в дом слона, терпение Марка и Джесси окончательно лопается: вооружившись подручными средствами, они открывают против своих незваных гостей боевые действия…


  • Мировая премьера: 16 февраля 1990




Личная оценка: 10 - всем советую

Качество видео: HDTVRip

Продолжительность: 01:26:18
Видео: кодек: x264, формат: mkv, размер кадра: 1024x552, битрейт: 2786 kbps
Аудио #1: язык: русский, перевод: многоголосый закадровый, кодек: AC3 2.0, битрейт: 192 kbps
Аудио #2: язык: русский, перевод: одноголосный закадровый (В. Дохалов), кодек: AC3 2.0, битрейт: 192 kbps
Аудио #3: язык: английский, перевод: оригинал, кодек: AC3 2.0, битрейт: 192 kbps

Семпл 1 на multi-up
Семпл 2 на multi-up

Релиз группы:






General
Complete name : Madhouse.1990.HDTVRip.AVCbyGUree.mkv
Format : Matroska
File size : 2.07 GiB
Duration : 1h 26mn
Overall bit rate : 3 430 Kbps
Movie name : -=GUree=-
Encoded date : UTC 2011-02-08 22:22:09
Writing application : mkvmerge v4.5.0 ('Speed of Light') сборка от Feb 1 2011 02:10:32
Writing library : libebml v1.2.0 + libmatroska v1.1.0

Video
ID : 1
Format : AVC
Format/Info : Advanced Video Codec
Format profile : High@L4.1
Format settings, CABAC : Yes
Format settings, ReFrames : 10 frames
Codec ID : V_MPEG4/ISO/AVC
Duration : 1h 26mn
Bit rate : 2 853 Kbps
Width : 1 024 pixels
Height : 552 pixels
Display aspect ratio : 1.855
Frame rate : 23.976 fps
Color space : YUV
Chroma subsampling : 4:2:0
Bit depth : 8 bits
Scan type : Progressive
Bits/(Pixel*Frame) : 0.211
Stream size : 1.68 GiB (81%)
Writing library : x264 core 112 r1834 a51816a
Encoding settings : cabac=1 / ref=10 / deblock=1:-2:-1 / analyse=0x3:0x113 / me=tesa / subme=10 / psy=1 / psy_rd=1.00:0.40 / mixed_ref=1 / me_range=32 / chroma_me=1 / trellis=2 / 8x8dct=1 / cqm=0 / deadzone=21,11 / fast_pskip=0 / chroma_qp_offset=-4 / threads=6 / sliced_threads=0 / nr=0 / decimate=0 / interlaced=0 / constrained_intra=0 / bframes=8 / b_pyramid=2 / b_adapt=2 / b_bias=0 / direct=3 / weightb=1 / open_gop=0 / weightp=2 / keyint=250 / keyint_min=23 / scenecut=40 / intra_refresh=0 / rc_lookahead=60 / rc=2pass / mbtree=1 / bitrate=2853 / ratetol=1.0 / qcomp=0.75 / qpmin=0 / qpmax=51 / qpstep=4 / cplxblur=20.0 / qblur=0.5 / vbv_maxrate=50000 / vbv_bufsize=50000 / ip_ratio=1.40 / aq=1:0.90 / nal_hrd=none

Audio #1
ID : 2
Format : AC-3
Format/Info : Audio Coding 3
Mode extension : CM (complete main)
Codec ID : A_AC3
Duration : 1h 26mn
Bit rate mode : Constant
Bit rate : 192 Kbps
Channel(s) : 2 channels
Channel positions : Front: L R
Sampling rate : 48.0 KHz
Bit depth : 16 bits
Compression mode : Lossy
Stream size : 119 MiB (6%)
Title : AC3 2.0 192Kb/s
Language : Russian

Audio #2
ID : 3
Format : AC-3
Format/Info : Audio Coding 3
Mode extension : CM (complete main)
Codec ID : A_AC3
Duration : 1h 26mn
Bit rate mode : Constant
Bit rate : 192 Kbps
Channel(s) : 2 channels
Channel positions : Front: L R
Sampling rate : 48.0 KHz
Bit depth : 16 bits
Compression mode : Lossy
Stream size : 119 MiB (6%)
Title : AC3 2.0 192Kb/s
Language : Russian

Audio #3
ID : 4
Format : AC-3
Format/Info : Audio Coding 3
Mode extension : CM (complete main)
Codec ID : A_AC3
Duration : 1h 26mn
Bit rate mode : Constant
Bit rate : 192 Kbps
Channel(s) : 2 channels
Channel positions : Front: L R
Sampling rate : 48.0 KHz
Bit depth : 16 bits
Compression mode : Lossy
Stream size : 119 MiB (6%)
Title : AC3 2.0 192Kb/s
Language : English

Этот торрент недоступен для скачивания без регистрации, однако доступен по публичной magnet-ссылке (источники с публичных трекеров). Перед использованием ссылки прочтите, пожалуйста Пользовательское соглашение, а также как можно дольше оставайтесь на раздаче! Для того, чтобы скачать сам торрент-файл (который видит больше источников), а также для того, чтобы поблагодарить релизера, вам необходимо зарегистрироваться. Если регистрироваться лень - вы можете также попробовать скачать релиз по нашим партнерским ссылкам ниже.

[underverse.su].t13606.torrent
Трекер: Зарегистрирован   [ 08.02.2011 22:39 ]  

Статус: проверено (by GUree at 08.02.2011 22:44)
Поблагодарили: пока никто не поблагодарил...
Тип торрента: публичный - доступные источники с открытых трекеров: 
Размер: 2,07 GB (занимает 0,47 DVDR, для записи нужно 1 болванка DVDR/RW)
 
 
Похожие темы
Форум Тема Автор Торрент Отв. Посл. сооб.
Зарубежное кино [DVDRip, Low-Res HDRip, и т.д.] Сумасшедший вид любви / Crazy Kind of Love (Сара Сигель-Магнесс / Sarah Siegel-Magness) [2013 г., драма, мелодрама, комедия, HDRip] VO (ViruseProject) 90ytr90
34 | 4

0 | 884

19

31.07.2014 04:33

Зарубежное кино [DVDRip, Low-Res HDRip, и т.д.] Сумасшедшие суки / Crazy Bitches (Джейн Кларк) [2014 г., ужасы, WEB-DLRip] DVO [den904 & DeadSno] + Original Паукан
12 | 2

0 | 820

35

08.05.2015 10:38

Зарубежное кино HQ Сумасшедший дом / Madhouse (Том Ропелевски) [1990 г., комедия, HDTVRip] Паукан
0 | 0

2 | 1914

4

07.01.2011 22:04

Архив Сумасшедший на воле / Crazy on the Outside (Тим Аллен) [2009 г., комедия, HD DVDRip] igorek336
0 | 0

2 | 726

9

16.06.2011 08:08


Яндекс.Метрика powered by Sphinx


В Н И М А Н И Е
Сайт не распространяет и не хранит электронные версии произведений, а лишь бесплатно и без коммерческой выгоды (не требуя взамен платы,
SMS и т.д.) предоставляет доступ к создаваемому пользователями каталогу ссылок на торрент-файлы, которые содержат только списки хеш-сумм.
Убедительная просьба с жалобами обращаться напрямую к пользователю, разместившему торрент файл.

Вверх