Loading...
Error

Рок-н-рольщик / RocknRolla (Гай Ричи) [2008 г., боевик, комедия, криминал, BDRip]

Статистика раздачи
Размер:  2,18 GB   |    Зарегистрирован:  4 года   |    Скачан:  23 раза
Сидов:  2  |  0 KB/s  ]   Личеров:  0  |  0 KB/s  ]

* - сиды/пиры с внешних источников

   
 
Автор Сообщение

Паукан Пол:Муж

03-Апр-2009 19:31

Рок-н-рольщик / RocknRolla
«Секс, стволы и рок-н-ролл!»


Год выпуска: 2008
Жанр: боевик, комедия, криминал
Страна: США
Режиссер: Гай Ричи
В ролях: Джерард Батлер, Том Уилкинсон, Тэнди Ньютон, Марк Стронг, Идрис Эльба, Том Харди, Карел Роден, Тоби Кеббелл, Джереми Пивен, Лудакрис

Сюжет фильма: Фильм окунет вас в опасный мир коррупции и жизни криминальных отбросов современного Лондона, где недвижимость потеснила такого внушительного лидера торгового рынка, как наркотики, а самыми активными предпринимателями стали преступные группировки. Но каждому, кто захочет проворачивать там свои дела, будь то мелкая сошка Раз-два или русский теневой миллиардер Юрий Омович, придется сначала договориться с одним и тем же человеком Ленни Коулом.

  • Мировая премьера: 4 сентября 2008
  • Российская премьера: 29 января 2009, Каро-Премьер




Продолжительность: 01:54:19
Формат: avi
Видео: XviD, 720x304, 1942 kbps
Аудио #1: русский, дублированный [лицензия], AC3 5.1, 384 kbps
Аудио #2: русский, одноголосый закадровый [Гоблин, запиканый], AC3 5.1, 384 kbps
Релиз группы:
Сэмпл: http://multi-up.com/792988

Код:

General
Complete name                    : D:\Video\Movies\Releases\Rock.n.Rolla.2008.BDRip.XviD.AC3.Rus.power-club.info.avi
Format                           : AVI
Format/Info                      : Audio Video Interleave
Format profile                   : OpenDML
File size                        : 2.18 GiB
Duration                         : 1h 54mn
Overall bit rate                 : 2 729 Kbps
Writing application              : VirtualDubMod 1.5.10.2 (build 2540/release)
Writing library                  : VirtualDubMod build 2540/release

Video
ID                               : 0
Format                           : MPEG-4 Visual
Format profile                   : Streaming Video@L1
Format settings, BVOP            : Yes
Format settings, QPel            : No
Format settings, GMC             : No warppoints
Format settings, Matrix          : Custom
Muxing mode                      : Packed bitstream
Codec ID                         : XVID
Codec ID/Hint                    : XviD
Duration                         : 1h 54mn
Bit rate                         : 1 943 Kbps
Width                            : 720 pixels
Height                           : 304 pixels
Display aspect ratio             : 2.35
Frame rate                       : 23.976 fps
Resolution                       : 24 bits
Colorimetry                      : 4:2:0
Scan type                        : Progressive
Bits/(Pixel*Frame)               : 0.370
Stream size                      : 1.55 GiB (71%)
Writing library                  : XviD 1.2.1 (UTC 2008-12-04)

Audio #1
ID                               : 1
Format                           : AC-3
Format/Info                      : Audio Coding 3
Codec ID                         : 2000
Duration                         : 1h 54mn
Bit rate mode                    : Constant
Bit rate                         : 384 Kbps
Channel(s)                       : 6 channels
Channel positions                : Front: L C R, Surround: L R, LFE
Sampling rate                    : 48.0 KHz
Stream size                      : 314 MiB (14%)
Alignment                        : Split accross interleaves
Interleave, duration             : 42 ms (1.00 video frame)
Interleave, preload duration     : 500 ms
Title                            : Rock.n.Rolla.2008.AC3.Rus.D.384.kbps

Audio #2
ID                               : 2
Format                           : AC-3
Format/Info                      : Audio Coding 3
Codec ID                         : 2000
Duration                         : 1h 54mn
Bit rate mode                    : Constant
Bit rate                         : 384 Kbps
Channel(s)                       : 6 channels
Channel positions                : Front: L C R, Surround: L R, LFE
Sampling rate                    : 48.0 KHz
Stream size                      : 314 MiB (14%)
Alignment                        : Split accross interleaves
Interleave, duration             : 42 ms (1.00 video frame)
Interleave, preload duration     : 500 ms
Title                            : Rock.n.Rolla.2008.AC3.Rus.Goblin.censored.384.kbps

  • Прототипом главного героя стал вокалист «Babyshambles» Пит Доэрти (Pete Doherty).
  • Перевод для проката в России делал Дмитрий «Гоблин» Пучков.
  • На самом деле, в русском языке слово «рок-н-ролльщик» пишется с двумя буквами «л».
  • Пулемётный монтаж в сексуальной сцене был сделан из-за того, что в день съёмок у Джерарда Батлера была серьёзная инфекция дыхательных путей, и Тэнди Ньютон отказалась с ним целоваться. Гаю Ричи пришлось импровизировать.
pic pic pic
Для увеличения картинки щелкните мышкой по превью

Этот торрент недоступен для скачивания без регистрации, однако доступен по публичной magnet-ссылке (источники с публичных трекеров). Перед использованием ссылки прочтите, пожалуйста Пользовательское соглашение, а также как можно дольше оставайтесь на раздаче! Для того, чтобы скачать сам торрент-файл (который видит больше источников), а также для того, чтобы поблагодарить релизера, вам необходимо зарегистрироваться. Если регистрироваться лень - вы можете также попробовать скачать релиз по нашим партнерским ссылкам ниже.

[underverse.su].t21461.torrent
Трекер: Зарегистрирован   [ 21.11.2012 10:38 ]  

Статус: проверено (by garry at 21.11.2012 10:38)
Поблагодарили: 2 человека
Тип торрента: публичный - доступные источники с открытых трекеров: 
Размер: 2,18 GB (занимает 1/2 DVDR, для записи нужно 1 болванка DVDR/RW)
 
 

garry Пол:Муж

21-Ноя-2012 10:39

раздача обновлена.

Яндекс.Метрика powered by Sphinx


В Н И М А Н И Е
Сайт не распространяет и не хранит электронные версии произведений, а лишь бесплатно и без коммерческой выгоды (не требуя взамен платы,
SMS и т.д.) предоставляет доступ к создаваемому пользователями каталогу ссылок на торрент-файлы, которые содержат только списки хеш-сумм.
Убедительная просьба с жалобами обращаться напрямую к пользователю, разместившему торрент файл.

Вверх