Loading...
Error

Как я провел этим летом (Алексей Попогребский) [2010 г., триллер, драма, DVDRip]

Статистика раздачи
Размер:  2,18 GB   |    Зарегистрирован:  5 лет 10 месяцев   |    Скачан:  2 раза

Полного источника не было: 4 года 4 месяца

Сидов:  0  |  0 KB/s  ]   Личеров:  0  |  0 KB/s  ]

* - сиды/пиры с внешних источников

   
 
Автор Сообщение

GUree Пол:Муж

29-Янв-2011 23:12

Как я провел этим летом


Год выпуска: 2010
Жанр: триллер, драма
Страна: Россия
Режиссер: Алексей Попогребский
В ролях: Григорий Добрыгин, Сергей Пускепалис

Сюжет фильма: Начальник полярной станции Сергей и молодой стажер Павел — одни на острове в Северном ледовитом океане. Подходит к концу их вахта. Впервые за много лет Сергей окажется на материке, где его дожидается семья. Окончится летняя практика Павла, а он не испытал и сотой доли тех приключений, на которые рассчитывал, отправляясь в Заполярье.

Единственный канал общения с миром — неустойчивая радиосвязь с центральной базой. В отсутствие Сергея приходит сообщение, с которым Павел попросту не знает, как поступить. Он надеется, что скоро за ними придет теплоход и тогда все разрешится само собой. Но на Крайнем Севере возможно всё. И иногда приходится выбирать между своей жизнью и жизнью другого…


  • Мировая премьера: 17 февраля 2010
  • Российская премьера: 1 апреля 2010, «Вольга»




Личная оценка: 10 - всем советую

Качество видео: DVDRip

Продолжительность: 02:04:26
Видео: кодек: x264, формат: mkv, размер кадра: 720x560@1024x560, битрейт: 2013 kbps
Аудио: язык: русский, перевод: оригинал, кодек: AC3 5.1, битрейт: 448 kbps

Семпл 1 на multi-up
Семпл 2 на multi-up

Релиз группы:






General
Complete name : Kak.ja.provjol.etim.letom.2010.DVDRip.AVCbyGUree.mkv
Format : Matroska
File size : 2.18 GiB
Duration : 2h 4mn
Overall bit rate : 2 512 Kbps
Movie name : -=GUree=-
Encoded date : UTC 2011-01-29 22:34:35
Writing application : mkvmerge v4.4.0 ('Die Wiederkehr') сборка от Oct 31 2010 21:52:48
Writing library : libebml v1.0.0 + libmatroska v1.0.0

Video
ID : 1
Format : AVC
Format/Info : Advanced Video Codec
Format profile : High@L4.1
Format settings, CABAC : Yes
Format settings, ReFrames : 8 frames
Codec ID : V_MPEG4/ISO/AVC
Duration : 2h 4mn
Bit rate : 2 063 Kbps
Width : 720 pixels
Height : 560 pixels
Display aspect ratio : 16:9
Frame rate : 25.000 fps
Color space : YUV
Chroma subsampling : 4:2:0
Bit depth : 8 bits
Scan type : Progressive
Bits/(Pixel*Frame) : 0.205
Stream size : 1.75 GiB (80%)
Writing library : x264 core 112 r1834 a51816a
Encoding settings : cabac=1 / ref=8 / deblock=1:-2:-1 / analyse=0x3:0x113 / me=tesa / subme=10 / psy=1 / psy_rd=1.00:0.40 / mixed_ref=1 / me_range=32 / chroma_me=1 / trellis=2 / 8x8dct=1 / cqm=0 / deadzone=21,11 / fast_pskip=0 / chroma_qp_offset=-4 / threads=6 / sliced_threads=0 / nr=0 / decimate=0 / interlaced=0 / constrained_intra=0 / bframes=10 / b_pyramid=2 / b_adapt=2 / b_bias=0 / direct=3 / weightb=1 / open_gop=0 / weightp=2 / keyint=250 / keyint_min=25 / scenecut=40 / intra_refresh=0 / rc_lookahead=60 / rc=2pass / mbtree=1 / bitrate=2063 / ratetol=1.0 / qcomp=0.75 / qpmin=0 / qpmax=51 / qpstep=4 / cplxblur=20.0 / qblur=0.5 / vbv_maxrate=50000 / vbv_bufsize=50000 / ip_ratio=1.40 / aq=1:0.90 / nal_hrd=none

Audio
ID : 2
Format : AC-3
Format/Info : Audio Coding 3
Mode extension : CM (complete main)
Codec ID : A_AC3
Duration : 2h 4mn
Bit rate mode : Constant
Bit rate : 448 Kbps
Channel(s) : 6 channels
Channel positions : Front: L C R, Side: L R, LFE
Sampling rate : 48.0 KHz
Bit depth : 16 bits
Compression mode : Lossy
Stream size : 399 MiB (18%)
Title : AC3 5.1 448Kb/s
Language : Russian

Этот торрент недоступен для скачивания без регистрации, однако доступен по публичной magnet-ссылке (источники с публичных трекеров). Перед использованием ссылки прочтите, пожалуйста Пользовательское соглашение, а также как можно дольше оставайтесь на раздаче! Для того, чтобы скачать сам торрент-файл (который видит больше источников), а также для того, чтобы поблагодарить релизера, вам необходимо зарегистрироваться. Если регистрироваться лень - вы можете также попробовать скачать релиз по нашим партнерским ссылкам ниже.

[underverse.su].t13488.torrent
Трекер: Зарегистрирован   [ 29.01.2011 23:12 ]  

Статус: проверено (by GUree at 29.01.2011 23:14)
Поблагодарили: 1 человек
Тип торрента: публичный - доступные источники с открытых трекеров: 
Размер: 2,18 GB (занимает 1/2 DVDR, для записи нужно 1 болванка DVDR/RW)
 
 
Похожие темы
Форум Тема Автор Торрент Отв. Посл. сооб.
Наше кино [DVDRip, Low-Res HDRip, и т.д.] Как я провёл этим летом (Алексей Попогребский) [2010 г., триллер, DVDRip] Joey
0 | 1

0 | 964

42

21.04.2010 13:43


Яндекс.Метрика powered by Sphinx


В Н И М А Н И Е
Сайт не распространяет и не хранит электронные версии произведений, а лишь бесплатно и без коммерческой выгоды (не требуя взамен платы,
SMS и т.д.) предоставляет доступ к создаваемому пользователями каталогу ссылок на торрент-файлы, которые содержат только списки хеш-сумм.
Убедительная просьба с жалобами обращаться напрямую к пользователю, разместившему торрент файл.

Вверх