Loading...
Error

Легенды ночных стражей / Legend of the Guardians: The Owls of Ga’Hoole (Зак Снайдер / Zack Snyder) [2010 г., анимация, фэнтези, приключения, BDRip]

Статистика раздачи
Размер:  2,18 GB   |    Зарегистрирован:  5 лет 10 месяцев   |    Скачан:  0 раз

Полного источника не было: 4 года 4 месяца

Сидов:  0  |  0 KB/s  ]   Личеров:  0  |  0 KB/s  ]

* - сиды/пиры с внешних источников

   
 
Автор Сообщение

GUree Пол:Муж

28-Янв-2011 23:02

Легенды ночных стражей / Legend of the Guardians: The Owls of Ga’Hoole


Год выпуска: 2010
Жанр: анимация, фэнтези, приключения
Страна: США , Австралия
Режиссер: Зак Снайдер / Zack Snyder
Роли озвучивали: Прохор Чеховской (Soren), Диомид Виноградов (Kludd), Александр Груздев (Metalbeak), Любовь Германова (Nyra), Александр Воеводин (Ezylryb), Лиза Мартиросова (Eglantine), Маша Иващенко (Gylfie), Михаил Георгиу (Allomere), Борис Быстров (Twilight), Борис Шувалов (Digger), Ирина Киреева (Otulissa), Владимир Зайцев (Grimble)

Сюжет фильма: Миром, в котором уже не осталось людей, правят совы… добрые… злые… как и всегда! В волшебном лесу — королевстве сов Тито — на Великом Дереве Га`Хуул, где разумные совы живут в гармонии, наступают мрачные времена. Королевство подвергается страшной опасности со стороны соседних жестоких правителей, и эта опасность грозит уничтожить привычное мироздание.

  • Мировая премьера: 17 февраля 2010
  • Российская премьера: 1 апреля 2010, «Вольга»


Семпл 1 на multi-up
Семпл 2 на multi-up
Скриншоты сравнения с Оригиналом

Личная оценка: 10 - всем советую

Качество видео: BDRip

Продолжительность: 01:36:47
Видео: кодек: x264, формат: mkv, размер кадра: 1024x432, битрейт: 2270 kbps
Аудио #1: язык: русский, перевод: дублированный (дубляж), кодек: AC3 5.1, битрейт: 448 kbps
Аудио #2: язык: английский, перевод: оригинал, кодек: AC3 5.1, битрейт: 448 kbps
Субтитры #1: тип: вшитые отключаемые, язык: русский, формат: S_TEXT/UTF8
Субтитры #2: тип: вшитые отключаемые, язык: английский, формат: S_TEXT/UTF8

Релиз группы:






General
Complete name : Legend_of_the_Guardians.The_Owls_of_Ga_Hoole.2010.BDRip.AVCbyGUree.mkv
Format : Matroska
File size : 2.18 GiB
Duration : 1h 36mn
Overall bit rate : 3 230 Kbps
Movie name : -=GUree=-
Encoded date : UTC 2011-01-28 22:34:13
Writing application : mkvmerge v4.4.0 ('Die Wiederkehr') сборка от Oct 31 2010 21:52:48
Writing library : libebml v1.0.0 + libmatroska v1.0.0

Video
ID : 1
Format : AVC
Format/Info : Advanced Video Codec
Format profile : High@L4.1
Format settings, CABAC : Yes
Format settings, ReFrames : 6 frames
Codec ID : V_MPEG4/ISO/AVC
Duration : 1h 36mn
Bit rate : 2 333 Kbps
Width : 1 024 pixels
Height : 432 pixels
Display aspect ratio : 2.35:1
Frame rate : 23.976 fps
Color space : YUV
Chroma subsampling : 4:2:0
Bit depth : 8 bits
Scan type : Progressive
Bits/(Pixel*Frame) : 0.220
Stream size : 1.53 GiB (70%)
Writing library : x264 core 112 r1834 a51816a
Encoding settings : cabac=1 / ref=6 / deblock=1:-2:-1 / analyse=0x3:0x113 / me=tesa / subme=10 / psy=1 / psy_rd=1.00:0.40 / mixed_ref=1 / me_range=32 / chroma_me=1 / trellis=2 / 8x8dct=1 / cqm=0 / deadzone=21,11 / fast_pskip=0 / chroma_qp_offset=-4 / threads=6 / sliced_threads=0 / nr=0 / decimate=0 / interlaced=0 / constrained_intra=0 / bframes=8 / b_pyramid=2 / b_adapt=2 / b_bias=0 / direct=3 / weightb=1 / open_gop=0 / weightp=2 / keyint=250 / keyint_min=23 / scenecut=40 / intra_refresh=0 / rc_lookahead=60 / rc=2pass / mbtree=1 / bitrate=2333 / ratetol=1.0 / qcomp=0.75 / qpmin=0 / qpmax=51 / qpstep=4 / cplxblur=20.0 / qblur=0.5 / vbv_maxrate=50000 / vbv_bufsize=50000 / ip_ratio=1.40 / aq=1:0.90 / nal_hrd=none

Audio #1
ID : 2
Format : AC-3
Format/Info : Audio Coding 3
Mode extension : CM (complete main)
Codec ID : A_AC3
Duration : 1h 36mn
Bit rate mode : Constant
Bit rate : 448 Kbps
Channel(s) : 6 channels
Channel positions : Front: L C R, Side: L R, LFE
Sampling rate : 48.0 KHz
Bit depth : 16 bits
Compression mode : Lossy
Stream size : 310 MiB (14%)
Title : AC3 5.1 448Kb/s
Language : Russian

Audio #2
ID : 3
Format : AC-3
Format/Info : Audio Coding 3
Mode extension : CM (complete main)
Codec ID : A_AC3
Duration : 1h 36mn
Bit rate mode : Constant
Bit rate : 448 Kbps
Channel(s) : 6 channels
Channel positions : Front: L C R, Side: L R, LFE
Sampling rate : 48.0 KHz
Bit depth : 16 bits
Compression mode : Lossy
Stream size : 310 MiB (14%)
Title : AC3 5.1 448Kb/s
Language : English

Text #1
ID : 4
Format : UTF-8
Codec ID : S_TEXT/UTF8
Codec ID/Info : UTF-8 Plain Text
Language : Russian

Text #2
ID : 5
Format : UTF-8
Codec ID : S_TEXT/UTF8
Codec ID/Info : UTF-8 Plain Text
Language : English

Этот торрент недоступен для скачивания без регистрации, однако доступен по публичной magnet-ссылке (источники с публичных трекеров). Перед использованием ссылки прочтите, пожалуйста Пользовательское соглашение, а также как можно дольше оставайтесь на раздаче! Для того, чтобы скачать сам торрент-файл (который видит больше источников), а также для того, чтобы поблагодарить релизера, вам необходимо зарегистрироваться. Если регистрироваться лень - вы можете также попробовать скачать релиз по нашим партнерским ссылкам ниже.

[underverse.su].t13475.torrent
Трекер: Зарегистрирован   [ 28.01.2011 23:02 ]  

Статус: проверено (by GUree at 28.01.2011 23:04)
Поблагодарили: пока никто не поблагодарил...
Тип торрента: публичный - доступные источники с открытых трекеров: 
Размер: 2,18 GB (занимает 1/2 DVDR, для записи нужно 1 болванка DVDR/RW)
 
 
Похожие темы
Форум Тема Автор Торрент Отв. Посл. сооб.
Зарубежные мультфильмы Легенды ночных стражей / Legend of the Guardians: The Owls of Ga'Hoole (Зак Снайдер) [2010 г., фэнтези, приключения, мультфильм, HDRip] P.O.C.O.X.A
31 | 0

3 | 1418

29

28.08.2014 16:10

Архив Легенды ночных стражей / Legend of the Guardians: The Owls of Ga’Hoole (Зак Снайдер / Zack Snyder ) [2010 г., приключения, сказка, фэнтези, DVD-9] SKRiptus
0 | 0

4 | 2098

2

05.11.2011 14:45

Мультфильмы [HDDVDRip / BDRip / WEB-DL / HDTV 1080/720р] Легенды ночных стражей / Legend of the Guardians: The Owls of Ga’Hoole (Зак Снайдер) [2010 г., Мультфильм, Комедия, Приключения, Семейный, BDRip 720p] Dub (Rus) + Original (Eng) + Subs (Rus, Eng) /... Ведьмочка
1 | 0

0 | 1166

17

01.07.2014 23:58


Яндекс.Метрика powered by Sphinx


В Н И М А Н И Е
Сайт не распространяет и не хранит электронные версии произведений, а лишь бесплатно и без коммерческой выгоды (не требуя взамен платы,
SMS и т.д.) предоставляет доступ к создаваемому пользователями каталогу ссылок на торрент-файлы, которые содержат только списки хеш-сумм.
Убедительная просьба с жалобами обращаться напрямую к пользователю, разместившему торрент файл.

Вверх