Loading...
Error

Чудо (Александр Прошкин) [2009 г., драма, DVDRip]

Статистика раздачи
Размер:  2,08 GB   |    Зарегистрирован:  5 лет 10 месяцев   |    Скачан:  0 раз

Полного источника не было: 4 года 4 месяца

Сидов:  0  |  0 KB/s  ]   Личеров:  0  |  0 KB/s  ]

* - сиды/пиры с внешних источников

   
 
Автор Сообщение

GUree Пол:Муж

19-Янв-2011 13:04

Чудо


Год выпуска: 2009
Жанр: драма
Страна: Россия
Режиссер: Александр Прошкин
В ролях: Константин Хабенский, Сергей Маковецкий, Полина Кутепова, Виктор Шамиров, Сергей Новиков, Виталий Кищенко, Анна Уколова, Вячеслав Степанян, Илона Арсентьева

Сюжет фильма: В основу фильма положены реальные события, произошедшие в Самаре в 1956 году и известные как «Стояние Зои». Во время праздника девушка, не дождавшись своего суженого, снимает со стены икону Николая Чудотворца и начинает с ней танцевать, но внезапно застывает на месте. Это стояние продолжается много месяцев. Жители провинциального городка напуганы этим необычайным событием, которое обрастает слухами и домыслами. Чтобы попытаться разобраться в ситуации, туда отправляется журналист столичной газеты…

  • Мировая премьера: 10 октября 2009
  • Российская премьера: 12 ноября 2009, «CP Classic»


Личная оценка: 9 - торкнуло

Качество видео: DVDRip

Продолжительность: 01:50:25
Видео: кодек: x264, формат: mkv, размер кадра: 720x568@1024x568, битрейт: 2190 kbps
Аудио: язык: русский, перевод: оригинал, кодек: AC3 5.1, битрейт: 448 kbps

Семпл 1 на multi-up
Семпл 2 на multi-up

Релиз группы:








General
Complete name : E:CHudo.2009.DVDRip.AVCbyGUree.mkv
Format : Matroska
File size : 2.08 GiB
Duration : 1h 50mn
Overall bit rate : 2 692 Kbps
Movie name : -=GUree=-
Encoded date : UTC 2011-01-19 11:02:54
Writing application : mkvmerge v4.4.0 ('Die Wiederkehr') сборка от Oct 31 2010 21:52:48
Writing library : libebml v1.0.0 + libmatroska v1.0.0

Video
ID : 1
Format : AVC
Format/Info : Advanced Video Codec
Format profile : High@L4.1
Format settings, CABAC : Yes
Format settings, ReFrames : 8 frames
Codec ID : V_MPEG4/ISO/AVC
Duration : 1h 50mn
Bit rate : 2 242 Kbps
Width : 720 pixels
Height : 568 pixels
Display aspect ratio : 16:9
Frame rate : 25.000 fps
Color space : YUV
Chroma subsampling : 4:2:0
Bit depth : 8 bits
Scan type : Progressive
Bits/(Pixel*Frame) : 0.219
Stream size : 1.69 GiB (81%)
Writing library : x264 core 112 r1834 a51816a
Encoding settings : cabac=1 / ref=8 / deblock=1:-2:-1 / analyse=0x3:0x113 / me=tesa / subme=10 / psy=1 / psy_rd=1.00:0.40 / mixed_ref=1 / me_range=32 / chroma_me=1 / trellis=2 / 8x8dct=1 / cqm=0 / deadzone=21,11 / fast_pskip=0 / chroma_qp_offset=-4 / threads=6 / sliced_threads=0 / nr=0 / decimate=0 / interlaced=0 / constrained_intra=0 / bframes=10 / b_pyramid=2 / b_adapt=2 / b_bias=0 / direct=3 / weightb=1 / open_gop=0 / weightp=2 / keyint=250 / keyint_min=25 / scenecut=40 / intra_refresh=0 / rc_lookahead=60 / rc=2pass / mbtree=1 / bitrate=2242 / ratetol=1.0 / qcomp=0.75 / qpmin=0 / qpmax=51 / qpstep=4 / cplxblur=20.0 / qblur=0.5 / vbv_maxrate=50000 / vbv_bufsize=50000 / ip_ratio=1.40 / aq=1:0.90 / nal_hrd=none

Audio
ID : 2
Format : AC-3
Format/Info : Audio Coding 3
Mode extension : CM (complete main)
Codec ID : A_AC3
Duration : 1h 50mn
Bit rate mode : Constant
Bit rate : 448 Kbps
Channel(s) : 6 channels
Channel positions : Front: L C R, Side: L R, LFE
Sampling rate : 48.0 KHz
Bit depth : 16 bits
Compression mode : Lossy
Stream size : 354 MiB (17%)
Title : FC3 5.1 448Rb/s
Language : Russian

Этот торрент недоступен для скачивания без регистрации, однако доступен по публичной magnet-ссылке (источники с публичных трекеров). Перед использованием ссылки прочтите, пожалуйста Пользовательское соглашение, а также как можно дольше оставайтесь на раздаче! Для того, чтобы скачать сам торрент-файл (который видит больше источников), а также для того, чтобы поблагодарить релизера, вам необходимо зарегистрироваться. Если регистрироваться лень - вы можете также попробовать скачать релиз по нашим партнерским ссылкам ниже.

[underverse.su].t13374.torrent
Трекер: Зарегистрирован   [ 19.01.2011 13:04 ]  

Статус: проверено (by GUree at 19.01.2011 13:07)
Поблагодарили: пока никто не поблагодарил...
Тип торрента: публичный - доступные источники с открытых трекеров: 
Размер: 2,08 GB (занимает 0,47 DVDR, для записи нужно 1 болванка DVDR/RW)
 
 

Яндекс.Метрика powered by Sphinx


В Н И М А Н И Е
Сайт не распространяет и не хранит электронные версии произведений, а лишь бесплатно и без коммерческой выгоды (не требуя взамен платы,
SMS и т.д.) предоставляет доступ к создаваемому пользователями каталогу ссылок на торрент-файлы, которые содержат только списки хеш-сумм.
Убедительная просьба с жалобами обращаться напрямую к пользователю, разместившему торрент файл.

Вверх