Loading...
Error

Мужчина в моей голове (Алексей Пиманов) [2009 г., комедия, DVDRip]

Статистика раздачи
Размер:  2,03 GB   |    Зарегистрирован:  6 лет 1 месяц   |    Скачан:  0 раз

Полного источника не было: 20 дней

Сидов:  0  |  0 KB/s  ]   Личеров:  0  |  0 KB/s  ]

* - сиды/пиры с внешних источников

   
 
Автор Сообщение

GUree Пол:Муж

06-Янв-2011 03:56

Мужчина в моей голове


Год выпуска: 2009
Жанр: комедия
Страна: Россия
Режиссер: Алексей Пиманов
В ролях: Ольга Погодина, Алексей Серебряков, Андрей Чернышов, Ольга Медынич, Василий Брыков, Анна Якунина, Егор Баринов, Александр Макогон, Игорь Угольников, Игорь Верник, Людмила Гаврилова (II), Вахтанг Беридзе, Александра Живова, Олег Пышненко, Ирина Ефремова

Сюжет фильма: Действие происходит в предновогодней Москве. Женщина, упав на катке, теряет сознание и оказывается в больнице. Придя в себя, она чувствует, что у неё в голове поселился неизвестный мужчина. Они начинают общаться: ссорятся, мирятся, советуются. Наконец, она влюбляется в него, а он исчезает. В то же время в больнице приходит в сознание известный телеведущий…

  • Российская премьера: 7 января 2010,


Личная оценка: 10 - всем советую

Качество видео: DVDRip

Продолжительность: 01:56:33
Видео: кодек: x264, формат: mkv, размер кадра: 720x576@1024x576, битрейт: 2246 kbps
Аудио: язык: русский, перевод: оригинал, кодек: AC3 2.0, битрейт: 192 kbps

Семпл 1 на multi-up
Семпл 2 на multi-up

Релиз группы:








General
Complete name : Muzchina_v_moey_golove.2009.DVDRip.AVCbyGUree.mkv
Format : Matroska
File size : 2.03 GiB
Duration : 1h 56mn
Overall bit rate : 2 488 Kbps
Movie name : -=GUree=-
Encoded date : UTC 2011-01-06 03:25:13
Writing application : mkvmerge v4.4.0 ('Die Wiederkehr') сборка от Oct 31 2010 21:52:48
Writing library : libebml v1.0.0 + libmatroska v1.0.0

Video
ID : 1
Format : AVC
Format/Info : Advanced Video Codec
Format profile : High@L4.1
Format settings, CABAC : Yes
Format settings, ReFrames : 10 frames
Format settings, GOP : N=1
Codec ID : V_MPEG4/ISO/AVC
Duration : 1h 56mn
Bit rate : 2 295 Kbps
Width : 720 pixels
Height : 576 pixels
Display aspect ratio : 16:9
Frame rate : 25.000 fps
Standard : PAL
Color space : YUV
Chroma subsampling : 4:2:0
Bit depth : 8 bits
Scan type : Progressive
Bits/(Pixel*Frame) : 0.221
Stream size : 1.83 GiB (90%)
Writing library : x264 core 107 r1745 4785e8e
Encoding settings : cabac=1 / ref=10 / deblock=1:-2:-1 / analyse=0x3:0x113 / me=tesa / subme=10 / psy=1 / psy_rd=1.00:0.40 / mixed_ref=1 / me_range=32 / chroma_me=1 / trellis=2 / 8x8dct=1 / cqm=0 / deadzone=21,11 / fast_pskip=0 / chroma_qp_offset=-4 / threads=6 / sliced_threads=0 / nr=0 / decimate=0 / interlaced=0 / constrained_intra=0 / bframes=8 / b_pyramid=2 / b_adapt=2 / b_bias=0 / direct=3 / weightb=1 / open_gop=0 / weightp=2 / keyint=250 / keyint_min=25 / scenecut=40 / intra_refresh=0 / rc_lookahead=60 / rc=2pass / mbtree=1 / bitrate=2295 / ratetol=1.0 / qcomp=0.75 / qpmin=10 / qpmax=51 / qpstep=4 / cplxblur=20.0 / qblur=0.5 / vbv_maxrate=50000 / vbv_bufsize=50000 / ip_ratio=1.40 / aq=1:0.90 / nal_hrd=none

Audio
ID : 2
Format : AC-3
Format/Info : Audio Coding 3
Mode extension : CM (complete main)
Codec ID : A_AC3
Duration : 1h 56mn
Bit rate mode : Constant
Bit rate : 192 Kbps
Channel(s) : 2 channels
Channel positions : Front: L R
Sampling rate : 48.0 KHz
Bit depth : 16 bits
Compression mode : Lossy
Stream size : 160 MiB (8%)
Title : AC3 2.0 192Kb/s
Language : Russian

Этот торрент недоступен для скачивания без регистрации, однако доступен по публичной magnet-ссылке (источники с публичных трекеров). Перед использованием ссылки прочтите, пожалуйста Пользовательское соглашение, а также как можно дольше оставайтесь на раздаче! Для того, чтобы скачать сам торрент-файл (который видит больше источников), а также для того, чтобы поблагодарить релизера, вам необходимо зарегистрироваться. Если регистрироваться лень - вы можете также попробовать скачать релиз по нашим партнерским ссылкам ниже.

[underverse.su].t13208.torrent
Трекер: Зарегистрирован   [ 06.01.2011 03:56 ]  

Статус: проверено (by GUree at 06.01.2011 03:57)
Поблагодарили: 1 человек
Тип торрента: публичный - доступные источники с открытых трекеров: 
Размер: 2,03 GB (занимает 0,46 DVDR, для записи нужно 1 болванка DVDR/RW)
 
 
Похожие темы
Форум Тема Автор Торрент Отв. Посл. сооб.
Архив Мужчина в моей голове (Алексей Пиманов) [2009 г., комедия, мелодрама, SatRip] Zver-Mix
0 | 0

1 | 1611

12

16.06.2011 08:08

Архив Мужчина в поисках эротики / The Erotic Man (Йорген Лет) [2010 г., драма, DVD-9] andrej-ku
0 | 0

2 | 919

4

09.10.2012 13:55


Яндекс.Метрика powered by Sphinx


В Н И М А Н И Е
Сайт не распространяет и не хранит электронные версии произведений, а лишь бесплатно и без коммерческой выгоды (не требуя взамен платы,
SMS и т.д.) предоставляет доступ к создаваемому пользователями каталогу ссылок на торрент-файлы, которые содержат только списки хеш-сумм.
Убедительная просьба с жалобами обращаться напрямую к пользователю, разместившему торрент файл.

Вверх