Loading...
Error

Аватар / Avatar (Джеймс Кэмерон / James Cameron) [2009 г., фантастика, боевик, драма, приключения, BDRip] [Extended Collector's Cut]

Статистика раздачи
Размер:  4,37 GB   |    Зарегистрирован:  5 лет 11 месяцев   |    Скачан:  13 раз

Полного источника не было: 1 год 2 месяца

Сидов:  0  |  0 KB/s  ]   Личеров:  0  |  0 KB/s  ]

* - сиды/пиры с внешних источников

   
 
Автор Сообщение

GUree Пол:Муж

27-Дек-2010 12:40

Аватар / Avatar
Extended Collector's Cut


Год выпуска: 2009
Жанр: фантастика, боевик, драма, приключения
Страна: США , Великобритания
Режиссер: Джеймс Кэмерон / James Cameron
В ролях: Сэм Уортингтон, Зои Салдана, Сигурни Уивер, Стивен Лэнг, Джоэль Мур, Джованни Рибизи, Мишель Родригес, Лас Алонсо, Уэс Студи, Си Си Эйч Паундер

Сюжет фильма: Джейк Салли — бывший морской пехотинец, прикованный к инвалидному креслу. Несмотря на немощное тело, Джейк в душе по-прежнему остается воином. Он получает задание совершить путешествие в несколько световых лет к базе землян на планете Пандора, где корпорации добывают редкий минерал, имеющий огромное значение для выхода Земли из энергетического кризиса.

  • Мировая премьера: 10 декабря 2009
  • Российская премьера: 17 декабря 2009, «Фокс»3D


Личная оценка: 10 - всем советую

Качество видео: BDRip

Продолжительность: 02:58:09
Видео: кодек: x264, формат: mkv, размер кадра: 1024x576, битрейт: 2607 kbps
Аудио #1: язык: русский, перевод: дублированный (дубляж), кодек: AC3 5.1, битрейт: 448 kbps
Аудио #2: язык: английский, перевод: оригинал, кодек: AC3 5.1, битрейт: 384 kbps
Субтитры #1: тип: вшитые отключаемые, язык: русский, формат: S_TEXT/ASS
Субтитры #2: тип: вшитые отключаемые, язык: русский, формат: S_TEXT/ASS
Субтитры #3: тип: вшитые отключаемые, язык: английский, формат: S_TEXT/ASS
Субтитры #4: тип: вшитые отключаемые, язык: английский, формат: S_TEXT/ASS

Семпл 1 на multi-up
Семпл 2 на multi-up

Релиз группы:








General
Complete name : AVCbyGUreeDVD5\Avatar.E.C.2009.BDRip.AVCbyGUree.mkv
Format : Matroska
File size : 4.37 GiB
Duration : 2h 58mn
Overall bit rate : 3 510 Kbps
Movie name : -=GUree=-
Encoded date : UTC 2010-12-27 12:24:01
Writing application : mkvmerge v4.4.0 ('Die Wiederkehr') сборка от Oct 31 2010 21:52:48
Writing library : libebml v1.0.0 + libmatroska v1.0.0
Cover : Yes / Yes / Yes

Video
ID : 1
Format : AVC
Format/Info : Advanced Video Codec
Format profile : High@L4.1
Format settings, CABAC : Yes
Format settings, ReFrames : 10 frames
Codec ID : V_MPEG4/ISO/AVC
Duration : 2h 58mn
Bit rate : 2 677 Kbps
Width : 1 024 pixels
Height : 576 pixels
Display aspect ratio : 16:9
Frame rate : 23.976 fps
Color space : YUV
Chroma subsampling : 4:2:0
Bit depth : 8 bits
Scan type : Progressive
Bits/(Pixel*Frame) : 0.189
Stream size : 3.25 GiB (74%)
Writing library : x264 core 107 r1745 4785e8e
Encoding settings : cabac=1 / ref=10 / deblock=1:-2:-1 / analyse=0x3:0x113 / me=tesa / subme=10 / psy=1 / psy_rd=1.00:0.40 / mixed_ref=1 / me_range=32 / chroma_me=1 / trellis=2 / 8x8dct=1 / cqm=0 / deadzone=21,11 / fast_pskip=0 / chroma_qp_offset=-4 / threads=6 / sliced_threads=0 / nr=0 / decimate=0 / interlaced=0 / constrained_intra=0 / bframes=8 / b_pyramid=2 / b_adapt=2 / b_bias=0 / direct=3 / weightb=1 / open_gop=0 / weightp=2 / keyint=250 / keyint_min=23 / scenecut=40 / intra_refresh=0 / rc_lookahead=60 / rc=2pass / mbtree=1 / bitrate=2677 / ratetol=1.0 / qcomp=0.75 / qpmin=10 / qpmax=51 / qpstep=4 / cplxblur=20.0 / qblur=0.5 / vbv_maxrate=50000 / vbv_bufsize=50000 / ip_ratio=1.40 / aq=1:0.90 / nal_hrd=none

Audio #1
ID : 2
Format : AC-3
Format/Info : Audio Coding 3
Mode extension : CM (complete main)
Codec ID : A_AC3
Duration : 2h 58mn
Bit rate mode : Constant
Bit rate : 448 Kbps
Channel(s) : 6 channels
Channel positions : Front: L C R, Side: L R, LFE
Sampling rate : 48.0 KHz
Bit depth : 16 bits
Compression mode : Lossy
Stream size : 571 MiB (13%)
Title : AC3 5.1 448Kb/s
Language : Russian

Audio #2
ID : 3
Format : AC-3
Format/Info : Audio Coding 3
Mode extension : CM (complete main)
Codec ID : A_AC3
Duration : 2h 58mn
Bit rate mode : Constant
Bit rate : 384 Kbps
Channel(s) : 6 channels
Channel positions : Front: L C R, Side: L R, LFE
Sampling rate : 48.0 KHz
Bit depth : 16 bits
Compression mode : Lossy
Stream size : 489 MiB (11%)
Title : AC3 5.1 384Kb/s
Language : English

Text #1
ID : 4
Format : ASS
Codec ID : S_TEXT/ASS
Codec ID/Info : Advanced Sub Station Alpha
Compression mode : Lossless
Title : Forced Styled, ASS
Language : Russian

Text #2
ID : 5
Format : ASS
Codec ID : S_TEXT/ASS
Codec ID/Info : Advanced Sub Station Alpha
Compression mode : Lossless
Title : Full Styled, ASS
Language : Russian

Text #3
ID : 6
Format : ASS
Codec ID : S_TEXT/ASS
Codec ID/Info : Advanced Sub Station Alpha
Compression mode : Lossless
Title : Forced Styled, ASS
Language : English

Text #4
ID : 7
Format : ASS
Codec ID : S_TEXT/ASS
Codec ID/Info : Advanced Sub Station Alpha
Compression mode : Lossless
Title : Full Styled, ASS
Language : English

Этот торрент недоступен для скачивания без регистрации, однако доступен по публичной magnet-ссылке (источники с публичных трекеров). Перед использованием ссылки прочтите, пожалуйста Пользовательское соглашение, а также как можно дольше оставайтесь на раздаче! Для того, чтобы скачать сам торрент-файл (который видит больше источников), а также для того, чтобы поблагодарить релизера, вам необходимо зарегистрироваться. Если регистрироваться лень - вы можете также попробовать скачать релиз по нашим партнерским ссылкам ниже.

[underverse.su].t13142.torrent
Трекер: Зарегистрирован   [ 27.12.2010 12:40 ]  

Статус: проверено (by GUree at 27.12.2010 12:42)
Поблагодарили: 3 человека
Тип торрента: публичный - доступные источники с открытых трекеров: 
Размер: 4,37 GB (занимает 1 DVDR, для записи нужно 1 болванка DVDR/RW)
 
 
Похожие темы
Форум Тема Автор Торрент Отв. Посл. сооб.
Зарубежное кино [DVDRip, Low-Res HDRip, и т.д.] Аватар / Avatar (Джеймс Кэмерон / James Cameron) [2009 г., фантастика, боевик, триллер, приключения, DVDRip] GanibalKing
0 | 0

0 | 1161

22

18.04.2010 05:21

Зарубежное кино [DVDRip, Low-Res HDRip, и т.д.] Аватар / Avatar (Джеймс Кэмерон / James Cameron) [2009 г., фантастика, боевик, драма, приключения, BDRip] [Extended Cut] Dub + Sub (Rus) 90ytr90
211 | 2

0 | 637

25

31.01.2015 22:12

Зарубежное кино [DVD / HDDVD / BD / Remux] Аватар / Avatar (Джеймс Кэмерон / James Cameron) [2010 г., Боевик, приключения, фантастика, BDRemux 1080p] [Extended Collector's Cut] uzi2009
59 | 1

0 | 938

26

30.01.2014 21:02

Зарубежное кино [HDDVDRip / BDRip / WEB-DL / HDTV 1080/720р] Аватар / Avatar (Джеймс Кэмерон) [2009 г., Фантастика, боевик, триллер, приключения, BDRip 720p] Dub (RUS) + Original (ENG) + Subs (RUS, ENG) / 60 FPS slaventi-69
2 | 0

0 | 931

16

14.05.2015 10:14

* Архив Аватар / Avatar (Джиан Хонг Куо) [2004 г., фантастика, боевик, триллер, драма, DVDRip] kogesan

9 | 2853

29.08.2010 23:52

* Архив Аватар / Avatar (Джеймс Кэмерон) [2009г., фантастика, боевик, триллер, приключения, BDRip] HQ Club ~Crazy~

2 | 1212

29.08.2010 23:52

Архив Аватар / Avatar (Джеймс Кэмерон / James Cameron) [2009 г., фантастика, боевик, триллер, драма, приключения, BDRip] GUree
0 | 0

9 | 2090

7

16.06.2011 08:08

x00peR 

04-Мар-2011 17:33

Хороший фильм, мне очень понравился :)

AVATAR8 Пол:Муж

14-Июл-2012 12:54

Режиссерская версия еще более интересна :)

Яндекс.Метрика powered by Sphinx


В Н И М А Н И Е
Сайт не распространяет и не хранит электронные версии произведений, а лишь бесплатно и без коммерческой выгоды (не требуя взамен платы,
SMS и т.д.) предоставляет доступ к создаваемому пользователями каталогу ссылок на торрент-файлы, которые содержат только списки хеш-сумм.
Убедительная просьба с жалобами обращаться напрямую к пользователю, разместившему торрент файл.

Вверх