Loading...
Error

Курьер / Coursier (Эрве Рено / Herve Renoh) [2010 г., комедия, криминальный, DVDRip]

Статистика раздачи
Размер:  2,18 GB   |    Зарегистрирован:  5 лет 11 месяцев   |    Скачан:  4 раза

Полного источника не было: 4 года 4 месяца

Сидов:  0  |  0 KB/s  ]   Личеров:  0  |  0 KB/s  ]

* - сиды/пиры с внешних источников

   
 
Автор Сообщение

GUree Пол:Муж

23-Дек-2010 11:48

Курьер / Coursier


Год выпуска: 2010
Жанр: комедия, криминальный
Страна: Франция
Режиссер: Эрве Рено / Hervé Renoh
В ролях: Майкл Юн, Джеральдин Накаш, Джимми Жан-Луи, Дидье Фламан, Каталина Дэнис, Фредерик Чау, Жан-Мари Ламур

Сюжет фильма: Сэм работает курьером. Он несется по Парижу на своем скутере, нарушая все элементарные правила дорожного движения. И вот настал день, ставший худшим днем в его жизни. В этот злополучный день Сэму необходимо было присутствовать на бракосочетании сестры своей невесты Нади, но босс дает ему срочное поручение. Чем обернется для него это поручение, не могло присниться даже в самом кошмарном сне…

  • Мировая премьера: 24 февраля 2010




Личная оценка: 10 - всем советую

Качество видео: DVDRip

Продолжительность: 01:34:34
Видео: кодек: x264, формат: mkv, размер кадра: 720x576@1024x576, битрейт: 2333 kbps
Аудио #1: язык: русский, перевод: многоголосый закадровый, кодек: AC3 5.1, битрейт: 448 kbps
Аудио #2: язык: французский, перевод: оригинал, кодек: AC3 5.1, битрейт: 448 kbps
Субтитры: тип: вшитые отключаемые, язык: русский, формат: S_TEXT/UTF8

Семпл 1 на multi-up
Семпл 2 на multi-up

Релиз группы:










General
Complete name : Coursier.2010.DVDRip.AVCbyGUree.mkv
Format : Matroska
File size : 2.18 GiB
Duration : 1h 34mn
Overall bit rate : 3 295 Kbps
Movie name : -=GUree=-
Encoded date : UTC 2010-12-23 03:46:40
Writing application : mkvmerge v4.4.0 ('Die Wiederkehr') сборка от Oct 31 2010 21:52:48
Writing library : libebml v1.0.0 + libmatroska v1.0.0

Video
ID : 1
Format : AVC
Format/Info : Advanced Video Codec
Format profile : High@L4.1
Format settings, CABAC : Yes
Format settings, ReFrames : 10 frames
Codec ID : V_MPEG4/ISO/AVC
Duration : 1h 34mn
Bit rate : 2 397 Kbps
Width : 720 pixels
Height : 576 pixels
Display aspect ratio : 16:9
Frame rate : 25.000 fps
Standard : PAL
Color space : YUV
Chroma subsampling : 4:2:0
Bit depth : 8 bits
Scan type : Progressive
Bits/(Pixel*Frame) : 0.231
Stream size : 1.54 GiB (71%)
Writing library : x264 core 107 r1745 4785e8e
Encoding settings : cabac=1 / ref=10 / deblock=1:-2:-1 / analyse=0x3:0x113 / me=tesa / subme=10 / psy=1 / psy_rd=1.00:0.40 / mixed_ref=1 / me_range=32 / chroma_me=1 / trellis=2 / 8x8dct=1 / cqm=0 / deadzone=21,11 / fast_pskip=0 / chroma_qp_offset=-4 / threads=6 / sliced_threads=0 / nr=0 / decimate=0 / interlaced=0 / constrained_intra=0 / bframes=8 / b_pyramid=2 / b_adapt=2 / b_bias=0 / direct=3 / weightb=1 / open_gop=0 / weightp=2 / keyint=250 / keyint_min=25 / scenecut=40 / intra_refresh=0 / rc_lookahead=60 / rc=2pass / mbtree=1 / bitrate=2397 / ratetol=1.0 / qcomp=0.75 / qpmin=10 / qpmax=51 / qpstep=4 / cplxblur=20.0 / qblur=0.5 / vbv_maxrate=50000 / vbv_bufsize=50000 / ip_ratio=1.40 / aq=1:0.90 / nal_hrd=none

Audio #1
ID : 2
Format : AC-3
Format/Info : Audio Coding 3
Mode extension : CM (complete main)
Codec ID : A_AC3
Duration : 1h 34mn
Bit rate mode : Constant
Bit rate : 448 Kbps
Channel(s) : 6 channels
Channel positions : Front: L C R, Side: L R, LFE
Sampling rate : 48.0 KHz
Bit depth : 16 bits
Compression mode : Lossy
Video delay : 1s 798ms
Stream size : 303 MiB (14%)
Title : AC3 5.1 448Kb/s
Language : Russian

Audio #2
ID : 3
Format : AC-3
Format/Info : Audio Coding 3
Mode extension : CM (complete main)
Codec ID : A_AC3
Duration : 1h 34mn
Bit rate mode : Constant
Bit rate : 448 Kbps
Channel(s) : 6 channels
Channel positions : Front: L C R, Side: L R, LFE
Sampling rate : 48.0 KHz
Bit depth : 16 bits
Compression mode : Lossy
Stream size : 303 MiB (14%)
Title : AC3 5.1 448Kb/s
Language : French

Text
ID : 4
Format : UTF-8
Codec ID : S_TEXT/UTF8
Codec ID/Info : UTF-8 Plain Text
Language : Russian

Этот торрент недоступен для скачивания без регистрации, однако доступен по публичной magnet-ссылке (источники с публичных трекеров). Перед использованием ссылки прочтите, пожалуйста Пользовательское соглашение, а также как можно дольше оставайтесь на раздаче! Для того, чтобы скачать сам торрент-файл (который видит больше источников), а также для того, чтобы поблагодарить релизера, вам необходимо зарегистрироваться. Если регистрироваться лень - вы можете также попробовать скачать релиз по нашим партнерским ссылкам ниже.

[underverse.su].t13113.torrent
Трекер: Зарегистрирован   [ 23.12.2010 11:48 ]  

Статус: проверено (by GUree at 23.12.2010 12:20)
Поблагодарили: пока никто не поблагодарил...
Тип торрента: публичный - доступные источники с открытых трекеров: 
Размер: 2,18 GB (занимает 1/2 DVDR, для записи нужно 1 болванка DVDR/RW)
 
 
Похожие темы
Форум Тема Автор Торрент Отв. Посл. сооб.
Зарубежное кино [DVDRip, Low-Res HDRip, и т.д.] Курьер / Coursier (Эрве Рено / Herve Renoh) [2010, Франция, комедия, DVDRip] Crihsler
6 | 0

3 | 1092

20

19.12.2010 11:59

Архив Курьер / Coursier (Эрве Рено) [2010 г., Комедия, DVD-9] andrej-ku
0 | 0

2 | 1537

0

05.11.2011 14:45


Яндекс.Метрика powered by Sphinx


В Н И М А Н И Е
Сайт не распространяет и не хранит электронные версии произведений, а лишь бесплатно и без коммерческой выгоды (не требуя взамен платы,
SMS и т.д.) предоставляет доступ к создаваемому пользователями каталогу ссылок на торрент-файлы, которые содержат только списки хеш-сумм.
Убедительная просьба с жалобами обращаться напрямую к пользователю, разместившему торрент файл.

Вверх