Loading...
Error

Темный мир (Антон Мегердичев) [2010 г., триллер, фэнтези, DVDRip]

Статистика раздачи
Размер:  2,18 GB   |    Зарегистрирован:  6 лет   |    Скачан:  6 раз

Полного источника не было: 4 года 4 месяца

Сидов:  0  |  0 KB/s  ]   Личеров:  0  |  0 KB/s  ]

* - сиды/пиры с внешних источников

   
 
Автор Сообщение

GUree Пол:Муж

16-Ноя-2010 00:08

Темный мир


Год выпуска: 2010
Жанр: триллер, фэнтези
Страна: Россия
Режиссер: Антон Мегердичев
В ролях: Иван Жидков, Светлана Иванова, Владимир Носик, Сергей Угрюмов, Елена Панова, Илья Алексеев, Мария Кожевникова, Ксения Радченко, Захар Хунгуреев

Сюжет фильма: Группа студентов отправляется в экспедицию по глухим северным деревням. В одной из них главная героиня — девушка, увлеченная мистикой и романтикой загробного мира — находит древний могильник, а в нем — магический щит. Дотронувшись до щита, она пробуждает гнев духов прошлого и приобретает сверхчеловеческие способности. Теперь студентам придется вступить в противостояние с силами зла.

  • Российская премьера: 7 октября 2010, «Централ Партнершип»


Личная оценка: 8 - мне понравилось

Качество видео: DVDRip

Продолжительность: 01:41:01
Видео: кодек: x264, формат: mkv, размер кадра: 720x568@1024x568, битрейт: 2580 kbps
Аудио: язык: русский, перевод: оригинал, кодек: AC3 5.1, битрейт: 448 kbps

Семпл 1 на multi-up
Семпл 2 на multi-up

Релиз группы:








General
Complete name : Temniy_mir.2010.DVDRip.AVCbyGUree.mkv
Format : Matroska
File size : 2.18 GiB
Duration : 1h 41mn
Overall bit rate : 3 090 Kbps
Movie name : -=GUree=-
Encoded date : UTC 2010-11-15 23:41:49
Writing application : mkvmerge v4.4.0 ('Die Wiederkehr') сборка от Oct 31 2010 21:52:48
Writing library : libebml v1.0.0 + libmatroska v1.0.0

Video
ID : 1
Format : AVC
Format/Info : Advanced Video Codec
Format profile : High@L4.1
Format settings, CABAC : Yes
Format settings, ReFrames : 10 frames
Codec ID : V_MPEG4/ISO/AVC
Duration : 1h 41mn
Bit rate : 2 641 Kbps
Width : 720 pixels
Height : 568 pixels
Display aspect ratio : 16:9
Frame rate : 25.000 fps
Color space : YUV
Chroma subsampling : 4:2:0
Bit depth : 8 bits
Scan type : Progressive
Bits/(Pixel*Frame) : 0.258
Stream size : 1.82 GiB (84%)
Writing library : x264 core 107 r1745 4785e8e
Encoding settings : cabac=1 / ref=10 / deblock=1:-2:-1 / analyse=0x3:0x113 / me=tesa / subme=10 / psy=1 / psy_rd=1.00:0.40 / mixed_ref=1 / me_range=32 / chroma_me=1 / trellis=2 / 8x8dct=1 / cqm=0 / deadzone=21,11 / fast_pskip=0 / chroma_qp_offset=-4 / threads=6 / sliced_threads=0 / nr=0 / decimate=0 / interlaced=0 / constrained_intra=0 / bframes=8 / b_pyramid=2 / b_adapt=2 / b_bias=0 / direct=3 / weightb=1 / open_gop=0 / weightp=2 / keyint=250 / keyint_min=25 / scenecut=40 / intra_refresh=0 / rc_lookahead=60 / rc=2pass / mbtree=1 / bitrate=2641 / ratetol=1.0 / qcomp=0.75 / qpmin=10 / qpmax=51 / qpstep=4 / cplxblur=20.0 / qblur=0.5 / vbv_maxrate=50000 / vbv_bufsize=50000 / ip_ratio=1.40 / aq=1:0.90 / nal_hrd=none

Audio
ID : 2
Format : AC-3
Format/Info : Audio Coding 3
Mode extension : CM (complete main)
Codec ID : A_AC3
Duration : 1h 41mn
Bit rate mode : Constant
Bit rate : 448 Kbps
Channel(s) : 6 channels
Channel positions : Front: L C R, Side: L R, LFE
Sampling rate : 48.0 KHz
Bit depth : 16 bits
Stream size : 324 MiB (14%)
Title : AC3 5.1 448Kb/s
Language : Russian

Этот торрент недоступен для скачивания без регистрации, однако доступен по публичной magnet-ссылке (источники с публичных трекеров). Перед использованием ссылки прочтите, пожалуйста Пользовательское соглашение, а также как можно дольше оставайтесь на раздаче! Для того, чтобы скачать сам торрент-файл (который видит больше источников), а также для того, чтобы поблагодарить релизера, вам необходимо зарегистрироваться. Если регистрироваться лень - вы можете также попробовать скачать релиз по нашим партнерским ссылкам ниже.

[underverse.su].t12709.torrent
Трекер: Зарегистрирован   [ 16.11.2010 00:08 ]  

Статус: проверено (by GUree at 16.11.2010 00:09)
Поблагодарили: 2 человека
Тип торрента: публичный - доступные источники с открытых трекеров: 
Размер: 2,18 GB (занимает 1/2 DVDR, для записи нужно 1 болванка DVDR/RW)
 
 
Похожие темы
Форум Тема Автор Торрент Отв. Посл. сооб.
Зарубежное кино [DVDRip, Low-Res HDRip, и т.д.] Тёмный мир / Finsterworld (Фрауке Финстервальдер) [2013 г., драма, DVDRip] VO [PashaUp] Паукан
13 | 1

0 | 819

8

22.12.2014 10:34

Наше кино [DVDRip, Low-Res HDRip, и т.д.] Тёмный мир: Равновесие (Олег Асадулин) [2013 г., фэнтези, приключения, DVDRip-AVC] 90ytr90
0 | 0

0 | 387

5

24.04.2014 04:29

Наше кино [DVDRip, Low-Res HDRip, и т.д.] Тёмный мир: Равновесие (Олег Асадулин) [2013 г., фэнтези, приключения, BDRip-AVC] [Ger Transfer] Original + Ger + Sub (Ger) 90ytr90
2 | 0

0 | 497

11

13.01.2015 19:10

Наше кино [DVDRip, Low-Res HDRip, и т.д.] Тёмный мир: Равновесие (Олег Асадулин) [2013 г., фэнтези, приключения, BDRip] 90ytr90
17 | 0

0 | 485

5

02.02.2015 16:09

Наше кино HQ Тёмный мир: Равновесие (Олег Асадулин) [2013 г., фэнтези, приключения, HDRip] HQ Underverse HQ Underverse
1 | 0

2 | 2252

152

22.01.2014 12:46

xUSSR сериалы Тёмный мир: Равновесие [серии 01-12 из 12] (Олег Асадулин) [2014 г., фэнтези, приключения, SATRip] 90ytr90
2 | 0

0 | 1556

29

12.05.2014 17:45

Наше кино [DVD / HDDVD / BD / Remux] Темный мир 2D / 3D (Антон Мегердичев) [2010 г., триллер, фэнтези, DVD-9] SKRiptus
1 | 1

1 | 1116

7

16.11.2010 20:27

Наше кино [HDDVDRip / BDRip / WEB-DL / HDTV 1080/720р] Темный Мир (Антон Мегердичев) [2010 г., Фэнтези, Триллер, BDRip 720p] Ведьмочка
2 | 1

0 | 1149

17

04.07.2014 02:10

# Наше кино [HDDVDRip / BDRip / WEB-DL / HDTV 1080/720р] Тёмный мир: Равновесие (Олег Асадулин) [2013 г., фэнтези, приключения, BDRip 720p] Original + Ger + Sub (Ger) 90ytr90
2 | 0

0 | 502

7

13.01.2015 19:04

# Наше кино [HDDVDRip / BDRip / WEB-DL / HDTV 1080/720р] Тёмный мир: Равновесие (Олег Асадулин) [2013 г., фэнтези, приключения, BDRip 720p] [Ger Transfer] 90ytr90
2 | 0

0 | 646

8

17.01.2015 08:30



Последний раз редактировалось: GUree (13.02.2011 23:36), всего редактировалось 2 раз(а)

Паукан Пол:Муж

16-Ноя-2010 04:30

оперативненько)

valeriy-2 Пол:Муж

15-Янв-2012 19:10

Тяжолый фильм, не всем будет легко досмотреть до конца. Но поучительного как то мало!!!

johnflower 

14-Июл-2012 17:51

хороший фильм

Яндекс.Метрика powered by Sphinx


В Н И М А Н И Е
Сайт не распространяет и не хранит электронные версии произведений, а лишь бесплатно и без коммерческой выгоды (не требуя взамен платы,
SMS и т.д.) предоставляет доступ к создаваемому пользователями каталогу ссылок на торрент-файлы, которые содержат только списки хеш-сумм.
Убедительная просьба с жалобами обращаться напрямую к пользователю, разместившему торрент файл.

Вверх