Loading...
Error

На расстоянии любви (Нанетт Бурстейн) [2010 г., комедия, мелодрама, DVDRip]

Статистика раздачи
Размер:  1,37 GB   |    Зарегистрирован:  6 лет   |    Скачан:  5 раз

Полного источника не было: 5 лет 2 месяца

Сидов:  0  |  0 KB/s  ]   Личеров:  0  |  0 KB/s  ]

* - сиды/пиры с внешних источников

   
 
Автор Сообщение

THE_MECHANIC Пол:Муж

13-Ноя-2010 14:47



Год выпуска: 2010
Жанр: комедия, мелодрама
Страна: США
Режиссер: Джефф ЛаТьюлипп

Эдриан Броуди, Форест Уитакер, Кэм Жиганде, Мэгги Грэйс, Клифтон Коллинз мл., Фишер Стивенс, Трэвис Фиммел, Этан Кон, Дэвид Баннер, Джейсон Лью
За пивом, разговорами о пустяках в баре и… за завтраком следующим утром безграничное остроумие и неподдельная искренность Эрин очаровывают недавно пережившего расставание Гарретта. Страсть вспыхнула и переросла в настоящую бурю чувств, захватившую молодых людей на все лето, но никто не ждал, что у романа может быть продолжение — ведь Эрин отправляется домой в Сан-Франциско, а Гарретт остается работать в Нью-Йорке. Однако шесть недель безумного веселья неожиданно стали очень значимыми, и оба больше не уверены, хотят ли они, чтобы все вдруг закончилось.

  • Мировая премьера: 27 августа 2010
  • Российская премьера: 9 сентября 2010, «Каро-Премьер»

|
10 - всем советую

DVDRip

Продолжительность: 01:42:38
Видео: кодек: XviD, размер кадра: 720x304, битрейт: 1 382 Kbps
Аудио #1: русский, Дублированное [звук с CAMRip], кодек: MP3 (2 ch), битрейт: 128 kbps
Аудио #2: английский, оригинал, кодек: AC3 (6 ch), битрейт: 384 kbps


General
Complete name : D:\Мои документы\Мои видеозаписи\На расстоянии любви (Going the Distance).avi
Format : AVI
Format/Info : Audio Video Interleave
File size : 1.37 GiB
Duration : 1h 42mn
Overall bit rate : 1 908 Kbps
Writing application : VirtualDubMod 1.5.4.1 (build 2178/release)
Writing library : VirtualDubMod build 2178/release

Video
ID : 0
Format : MPEG-4 Visual
Format profile : Simple@L3
Format settings, BVOP : No
Format settings, QPel : No
Format settings, GMC : No warppoints
Format settings, Matrix : Default (H.263)
Codec ID : XVID
Codec ID/Hint : XviD
Duration : 1h 42mn
Bit rate : 1 382 Kbps
Width : 720 pixels
Height : 304 pixels
Display aspect ratio : 2.35:1
Frame rate : 23.976 fps
Color space : YUV
Chroma subsampling : 4:2:0
Bit depth : 8 bits
Scan type : Progressive
Bits/(Pixel*Frame) : 0.263
Stream size : 1 014 MiB (72%)
Writing library : XviD 1.2.1 (UTC 2008-12-04)

Audio #1
ID : 1
Format : MPEG Audio
Format version : Version 1
Format profile : Layer 3
Mode : Joint stereo
Codec ID : 55
Codec ID/Hint : MP3
Duration : 1h 42mn
Bit rate mode : Constant
Bit rate : 128 Kbps
Channel(s) : 2 channels
Sampling rate : 48.0 KHz
Stream size : 93.9 MiB (7%)
Alignment : Aligned on interleaves
Interleave, duration : 42 ms (1.00 video frame)
Interleave, preload duration : 504 ms

Audio #2
ID : 2
Format : AC-3
Format/Info : Audio Coding 3
Mode extension : CM (complete main)
Codec ID : 2000
Duration : 1h 42mn
Bit rate mode : Constant
Bit rate : 384 Kbps
Channel(s) : 6 channels
Channel positions : Front: L C R, Side: L R, LFE
Sampling rate : 48.0 KHz
Bit depth : 16 bits
Stream size : 282 MiB (20%)
Alignment : Split accross interleaves
Interleave, duration : 42 ms (1.00 video frame)
Interleave, preload duration : 500 ms

Этот торрент недоступен для скачивания без регистрации, однако доступен по публичной magnet-ссылке (источники с публичных трекеров). Перед использованием ссылки прочтите, пожалуйста Пользовательское соглашение, а также как можно дольше оставайтесь на раздаче! Для того, чтобы скачать сам торрент-файл (который видит больше источников), а также для того, чтобы поблагодарить релизера, вам необходимо зарегистрироваться. Если регистрироваться лень - вы можете также попробовать скачать релиз по нашим партнерским ссылкам ниже.

[underverse.su].t12688.torrent
Трекер: Зарегистрирован   [ 13.11.2010 14:47 ]  

Статус: проверено (by BartSimpson at 13.11.2010 17:03)
Поблагодарили: пока никто не поблагодарил...
Тип торрента: публичный - доступные источники с открытых трекеров: 
Размер: 1,37 GB (занимает 0,31 DVDR, для записи нужно 1 болванка DVDR/RW)
 
 
Похожие темы
Форум Тема Автор Торрент Отв. Посл. сооб.
Архив На расстоянии любви / Going the Distance (Нанетт Бурстейн) [2010 г., комедия, мелодрама, DVD-9] SKRiptus
0 | 0

1 | 640

0

16.06.2011 08:09


Яндекс.Метрика powered by Sphinx


В Н И М А Н И Е
Сайт не распространяет и не хранит электронные версии произведений, а лишь бесплатно и без коммерческой выгоды (не требуя взамен платы,
SMS и т.д.) предоставляет доступ к создаваемому пользователями каталогу ссылок на торрент-файлы, которые содержат только списки хеш-сумм.
Убедительная просьба с жалобами обращаться напрямую к пользователю, разместившему торрент файл.

Вверх