Loading...
Error

Как приручить дракона / How to Train Your Dragon (Дин ДеБлуа / Dean DeBlois, Крис Сандерс / Chris Sanders) [2010 г., анимация, фэнтези, комедия, приключения, семейный, BDRip]

Статистика раздачи
Размер:  2,18 GB   |    Зарегистрирован:  6 лет 1 месяц   |    Скачан:  2 раза

Полного источника не было: 2 года 6 месяцев

Сидов:  0  |  0 KB/s  ]   Личеров:  0  |  0 KB/s  ]

* - сиды/пиры с внешних источников

   
 
Автор Сообщение

GUree Пол:Муж

18-Окт-2010 21:26

Как приручить дракона / How to Train Your Dragon


Год выпуска: 2010
Жанр: анимация, фэнтези, комедия, приключения, семейный
Страна: США
Режиссер: Дин ДеБлуа / Dean DeBlois, Крис Сандерс / Chris Sanders
Роли озвучивали: Джей Барушель / Jay Baruchel (Hiccup), Джерард Батлер / Gerard Butler (Stoick), Крэйг Фергюсон / Craig Ferguson (Gobber), Америка Феррера / America Ferrera (Astrid), Джонах Хилл / Jonah Hill (Snotlout), Кристофер Минц-Плассе / Christopher Mintz-Plasse (Fishlegs), ТиДжей Миллер / T.J. Miller (Tuffnut), Кристен Уиг / Kristen Wiig (Ruffnut), Робин Аткин Даунс / Robin Atkin Downes (Ack), Филип МакГрэйд / Philip McGrade (Starkard), Кирон Эллиотт / Kieron Elliott (Hoark the Haggard), Эшли Дженсен / Ashley Jensen (Phlegma the Fierce), Дэвид Теннант / David Tennant (Spitelout)
Роли дублировали: Андрей Лёвин (Hiccup), Валерий Соловьев (Stoick), Михаил Боярский (Gobber), Софья Ануфриева (Astrid), Михаил Хрусталев (Snotlout)

Сюжет фильма: Вы узнаете историю подростка Иккинга, которому не слишком близки традиции его героического племени, много лет ведущего войну с драконами. Мир Иккинга переворачивается с ног на голову, когда он неожиданно встречает дракона Беззубика, который поможет ему и другим викингам увидеть привычный мир с совершенно другой стороны…

  • Мировая премьера: 18 марта 2010
  • Российская премьера: 18 марта 2010, «Централ Партнершип»


Личная оценка: 10 - всем советую

Качество видео: BDRip

Продолжительность: 01:37:51
Видео: кодек: x264, формат: mkv, размер кадра: 1024x432, битрейт: 2042 kbps
Аудио #1: язык: русский, перевод: дублированный (дубляж), кодек: AC3 5.1, битрейт: 384 kbps
Аудио #2: язык: украинский, перевод: дублированный (дубляж), кодек: AC3 5.1, битрейт: 384 kbps
Аудио #3: язык: английский, перевод: оригинал, кодек: AC3 5.1, битрейт: 384 kbps
Субтитры #1: тип: вшитые отключаемые, язык: русский, формат: S_TEXT/UTF8
Субтитры #2: тип: вшитые отключаемые, язык: украинский, формат: S_TEXT/UTF8
Субтитры #3: тип: вшитые отключаемые, язык: английский, формат: S_TEXT/UTF8

Семпл 1 на multi-up
Семпл 2 на multi-up

Релиз группы:








General
Complete name : E:\AVC MULT\How_to_Train_Your_Dragon.2010.BDRip.AVCbyGUree.mkv
Format : Matroska
File size : 2.18 GiB
Duration : 1h 37mn
Overall bit rate : 3 195 Kbps
Encoded date : UTC 2010-10-18 20:59:28
Writing application : mkvmerge v4.3.0 ('Escape from the Island') сборка от Sep 5 2010 10:30:51
Writing library : libebml v1.0.0 + libmatroska v1.0.0

Video
ID : 1
Format : AVC
Format/Info : Advanced Video Codec
Format profile : High@L4.1
Format settings, CABAC : Yes
Format settings, ReFrames : 8 frames
Codec ID : V_MPEG4/ISO/AVC
Duration : 1h 37mn
Bit rate : 2 042 Kbps
Width : 1 024 pixels
Height : 432 pixels
Display aspect ratio : 2.35:1
Frame rate : 23.976 fps
Color space : YUV
Chroma subsampling : 4:2:0
Bit depth : 8 bits
Scan type : Progressive
Bits/(Pixel*Frame) : 0.193
Stream size : 1.35 GiB (62%)
Writing library : x264 core 92 r1510 33d382a
Encoding settings : cabac=1 / ref=8 / deblock=1:-2:-1 / analyse=0x3:0x113 / me=tesa / subme=10 / psy=1 / psy_rd=1.00:0.40 / mixed_ref=1 / me_range=32 / chroma_me=1 / trellis=2 / 8x8dct=1 / cqm=0 / deadzone=21,11 / fast_pskip=0 / chroma_qp_offset=-4 / threads=6 / sliced_threads=0 / nr=0 / decimate=0 / interlaced=0 / constrained_intra=0 / bframes=6 / b_pyramid=2 / b_adapt=2 / b_bias=0 / direct=3 / wpredb=1 / wpredp=2 / keyint=250 / keyint_min=25 / scenecut=40 / intra_refresh=0 / rc_lookahead=60 / rc=2pass / mbtree=1 / bitrate=2042 / ratetol=1.0 / qcomp=0.75 / qpmin=10 / qpmax=51 / qpstep=4 / cplxblur=20.0 / qblur=0.5 / vbv_maxrate=50000 / vbv_bufsize=50000 / ip_ratio=1.40 / aq=1:0.90 / nal_hrd=none

Audio #1
ID : 2
Format : AC-3
Format/Info : Audio Coding 3
Mode extension : CM (complete main)
Codec ID : A_AC3
Duration : 1h 37mn
Bit rate mode : Constant
Bit rate : 384 Kbps
Channel(s) : 6 channels
Channel positions : Front: L C R, Side: L R, LFE
Sampling rate : 48.0 KHz
Bit depth : 16 bits
Stream size : 269 MiB (12%)
Title : AC3 5.1 384Kb/s
Language : Russian

Audio #2
ID : 3
Format : AC-3
Format/Info : Audio Coding 3
Mode extension : CM (complete main)
Codec ID : A_AC3
Duration : 1h 37mn
Bit rate mode : Constant
Bit rate : 384 Kbps
Channel(s) : 6 channels
Channel positions : Front: L C R, Side: L R, LFE
Sampling rate : 48.0 KHz
Bit depth : 16 bits
Stream size : 269 MiB (12%)
Title : AC3 5.1 384Kb/s
Language : Ukrainian

Audio #3
ID : 4
Format : AC-3
Format/Info : Audio Coding 3
Mode extension : CM (complete main)
Codec ID : A_AC3
Duration : 1h 37mn
Bit rate mode : Constant
Bit rate : 384 Kbps
Channel(s) : 6 channels
Channel positions : Front: L C R, Side: L R, LFE
Sampling rate : 48.0 KHz
Bit depth : 16 bits
Stream size : 269 MiB (12%)
Title : AC3 5.1 384Kb/s
Language : English

Text #1
ID : 5
Format : UTF-8
Codec ID : S_TEXT/UTF8
Codec ID/Info : UTF-8 Plain Text
Language : Russian

Text #2
ID : 6
Format : UTF-8
Codec ID : S_TEXT/UTF8
Codec ID/Info : UTF-8 Plain Text
Language : Ukrainian

Text #3
ID : 7
Format : UTF-8
Codec ID : S_TEXT/UTF8
Codec ID/Info : UTF-8 Plain Text
Language : English

Этот торрент недоступен для скачивания без регистрации, однако доступен по публичной magnet-ссылке (источники с публичных трекеров). Перед использованием ссылки прочтите, пожалуйста Пользовательское соглашение, а также как можно дольше оставайтесь на раздаче! Для того, чтобы скачать сам торрент-файл (который видит больше источников), а также для того, чтобы поблагодарить релизера, вам необходимо зарегистрироваться. Если регистрироваться лень - вы можете также попробовать скачать релиз по нашим партнерским ссылкам ниже.

[underverse.su].t12375.torrent
Трекер: Зарегистрирован   [ 18.10.2010 21:26 ]  

Статус: проверено (by GUree at 18.10.2010 21:29)
Поблагодарили: 2 человека
Тип торрента: публичный - доступные источники с открытых трекеров: 
Размер: 2,18 GB (занимает 1/2 DVDR, для записи нужно 1 болванка DVDR/RW)
 
 
Похожие темы
Форум Тема Автор Торрент Отв. Посл. сооб.
Мультфильмы HQ Как приручить дракона / How to Train Your Dragon (Дин ДеБлуа, Крис Сандерс) [2010 г., мультфильм, фэнтези, комедия, приключения, семейный, HDRip] (Rus, Ukr, Eng) HQ Underverse HQ Underverse
1 | 0

1 | 1275

34

06.09.2013 01:06

Мультфильмы HQ Как приручить дракона 2 / How to Train Your Dragon 2 (Дин ДеБлуа) [2014 г., мультфильм, семейный, BDRip] Dub + Original + Sub (Rus,Ukr,Eng) HQ Underverse HQ Underverse
1 | 0

0 | 1415

61

23.10.2014 13:23

Зарубежные мультфильмы Как приручить медведя / Den kæmpestore bjørn (Эсбен Тофт Якобсен) [2011 г., Мультфильм, фэнтези, драма, приключения, семейный., DVDRip] МУХА~
1 | 0

2 | 901

28

24.07.2011 10:12

Зарубежные мультфильмы Как приручить дракона / How to Train Your Dragon (Дин ДеБлуа, Крис Сандерс) [2010 г., фэнтези, комедия, приключения, семейный, мультфильм, BDRip] Dub Паукан
31 | 0

5 | 1464

4

12.03.2016 14:13

Зарубежные мультфильмы Как приручить зомби / Papa, soy una zombi (Жоан Эспинач, Рикардо Рамон) [2012 г., мультфильм, ужасы, фэнтези, комедия, DVDRip] MVO 90ytr90
22 | 0

0 | 710

26

03.12.2012 15:12

T Зарубежные мультфильмы Как приручить дракона 2 / How to Train Your Dragon 2 (Дин ДеБлуа) [2014 г., Мультфильм, Семейный, WEB-DLRip-AVC] Dub (RUS, iTunes Russia) + Original (ENG) + Subs (RUS, ENG, UKR) Ведьмочка
66 | 3

0 | 1139

45

01.09.2014 06:04

T Зарубежные мультфильмы Как приручить дракона 2 / How to Train Your Dragon 2 (Дин ДеБлуа) [2014 г., Мультфильм, Семейный, WEB-DLRip] Dub (RUS, iTunes Russia) Ведьмочка
18 | 0

0 | 1038

52

01.09.2014 06:45

Зарубежные мультфильмы Как приручить дракона 2 / How to Train Your Dragon 2 (Дин ДеБлуа / Dean DeBlois) [2014 г., мультфильм, фэнтези, комедия, BDRip] Dub 90ytr90
2 | 0

0 | 1012

60

18.10.2014 13:32

Короткометражные мультфильмы Как приручить дракона: Дар ночной фурии / Dragons: Gift of the Night Fury (Том Оуенс) [2011 г., Мультфильм, короткометражка, приключения, семейный, DVDRip] МУХА~
2 | 0

3 | 1112

30

16.09.2012 03:11

Архив Как приручить дракона / How to Train Your Dragon (Дин ДеБлуа, Крис Сандерс) [2010 г., фэнтези, комедия, приключения, семейный, мультфильм, BDRip 720p] ptrvch
0 | 0

1 | 1807

3

16.06.2011 08:09



Последний раз редактировалось: GUree (15.11.2010 21:37), всего редактировалось 1 раз

михей Пол:Муж

04-Ноя-2010 04:22

классный мульт!

Яндекс.Метрика powered by Sphinx


В Н И М А Н И Е
Сайт не распространяет и не хранит электронные версии произведений, а лишь бесплатно и без коммерческой выгоды (не требуя взамен платы,
SMS и т.д.) предоставляет доступ к создаваемому пользователями каталогу ссылок на торрент-файлы, которые содержат только списки хеш-сумм.
Убедительная просьба с жалобами обращаться напрямую к пользователю, разместившему торрент файл.

Вверх