Loading...
Error

Хищники / Predators (Нимрод Антал) [2010 г., фантастика, боевик, триллер, приключения, DVDRip]

Статистика раздачи
Размер:  2,18 GB   |    Зарегистрирован:  6 лет 2 месяца   |    Скачан:  1 раз

Полного источника не было: 4 года 1 месяц

Сидов:  0  |  0 KB/s  ]   Личеров:  0  |  0 KB/s  ]

* - сиды/пиры с внешних источников

   
 
Автор Сообщение

GUree Пол:Муж

25-Сен-2010 10:33

Хищники / Predators


Год выпуска: 2010
Жанр: фантастика, боевик, триллер, приключения
Страна: США
Режиссер: Нимрод Антал / Nimrod Antal
В ролях: Эдриан Броуди, Тофер Грейс, Алиси Брага, Уолтон Гоггинс, Олег Тактаров, Лоренс Фишбёрн, Дэнни Трехо Луис, Одзава Чангчьен, Махершалалхашбаз Али, Кэри Джонс

Сюжет фильма: Наемник Ройс невольно вынужден возглавить группу профессионалов, выполняющих загадочную миссию на неизвестной планете. За исключением опального доктора все они — хладнокровные убийцы: наемники, гангстеры, осужденные и участники отрядов смерти людские «хищники». Но когда их начинает систематически преследовать и истреблять невообразимое чудовище, становится очевидно, что теперь они в роли своих жертв.

  • Мировая премьера: 7 июля 2010
  • Российская премьера: 8 июля 2010, «Фокс»




Личная оценка: 9 - торкнуло

Качество видео: DVDRip

Продолжительность: 01:42:30
Видео: кодек: x264, формат: mkv, размер кадра: 720x432@1024x432, битрейт: 2214 kbps
Аудио #1: язык: русский, перевод: дублированный (дубляж), кодек: AC3 5.1, битрейт: 384 kbps
Аудио #2: язык: украинский, перевод: дублированный (дубляж), кодек: AC3 5.1, битрейт: 384 kbps
Субтитры: тип: вшитые отключаемые, язык: русский, формат: S_TEXT/UTF8

Семпл 1 на multi-up
Семпл 2 на multi-up

Релиз группы:








General
Complete name : D:\AVC\Predators.2010.DVDRip.AVC.mkv
Format : Matroska
File size : 2.18 GiB
Duration : 1h 42mn
Overall bit rate : 3 043 Kbps
Encoded date : UTC 2010-09-25 09:29:54
Writing application : mkvmerge v4.3.0 ('Escape from the Island') сборка от Sep 5 2010 10:30:51
Writing library : libebml v1.0.0 + libmatroska v1.0.0

Video
ID : 1
Format : AVC
Format/Info : Advanced Video Codec
Format profile : High@L4.1
Format settings, CABAC : Yes
Format settings, ReFrames : 10 frames
Muxing mode : Container profile=Unknown@4.1
Codec ID : V_MPEG4/ISO/AVC
Duration : 1h 42mn
Bit rate : 2 274 Kbps
Width : 720 pixels
Height : 432 pixels
Display aspect ratio : 2.35:1
Frame rate : 25.000 fps
Color space : YUV
Chroma subsampling : 4:2:0
Bit depth : 8 bits
Scan type : Progressive
Bits/(Pixel*Frame) : 0.292
Stream size : 1.59 GiB (73%)
Writing library : x264 core 92 r1510 33d382a
Encoding settings : cabac=1 / ref=10 / deblock=1:-2:-1 / analyse=0x3:0x113 / me=tesa / subme=10 / psy=1 / psy_rd=1.00:0.40 / mixed_ref=1 / me_range=32 / chroma_me=1 / trellis=2 / 8x8dct=1 / cqm=0 / deadzone=21,11 / fast_pskip=0 / chroma_qp_offset=-4 / threads=6 / sliced_threads=0 / nr=0 / decimate=0 / interlaced=0 / constrained_intra=0 / bframes=8 / b_pyramid=2 / b_adapt=2 / b_bias=0 / direct=3 / wpredb=1 / wpredp=2 / keyint=250 / keyint_min=25 / scenecut=40 / intra_refresh=0 / rc_lookahead=60 / rc=2pass / mbtree=1 / bitrate=2274 / ratetol=1.0 / qcomp=0.75 / qpmin=10 / qpmax=51 / qpstep=4 / cplxblur=20.0 / qblur=0.5 / vbv_maxrate=50000 / vbv_bufsize=50000 / ip_ratio=1.40 / aq=1:0.90 / nal_hrd=none
Language : English

Audio #1
ID : 2
Format : AC-3
Format/Info : Audio Coding 3
Mode extension : CM (complete main)
Muxing mode : Header stripping
Codec ID : A_AC3
Duration : 1h 42mn
Bit rate mode : Constant
Bit rate : 384 Kbps
Channel(s) : 6 channels
Channel positions : Front: L C R, Side: L R, LFE
Sampling rate : 48.0 KHz
Bit depth : 16 bits
Stream size : 282 MiB (13%)
Title : AC3 5.1 384kb/s
Language : Russian

Audio #2
ID : 3
Format : AC-3
Format/Info : Audio Coding 3
Mode extension : CM (complete main)
Muxing mode : Header stripping
Codec ID : A_AC3
Duration : 1h 42mn
Bit rate mode : Constant
Bit rate : 384 Kbps
Channel(s) : 6 channels
Channel positions : Front: L C R, Side: L R, LFE
Sampling rate : 48.0 KHz
Bit depth : 16 bits
Stream size : 282 MiB (13%)
Title : AC3 5.1 384kb/s
Language : Ukrainian

Text
ID : 4
Format : UTF-8
Codec ID : S_TEXT/UTF8
Codec ID/Info : UTF-8 Plain Text
Language : Russian

Этот торрент недоступен для скачивания без регистрации, однако доступен по публичной magnet-ссылке (источники с публичных трекеров). Перед использованием ссылки прочтите, пожалуйста Пользовательское соглашение, а также как можно дольше оставайтесь на раздаче! Для того, чтобы скачать сам торрент-файл (который видит больше источников), а также для того, чтобы поблагодарить релизера, вам необходимо зарегистрироваться. Если регистрироваться лень - вы можете также попробовать скачать релиз по нашим партнерским ссылкам ниже.

[underverse.su].t12056.torrent
Трекер: Зарегистрирован   [ 25.09.2010 22:04 ]  

Статус: проверено (by M-i-i-i-ke at 25.09.2010 23:07)
Поблагодарили: 1 человек
Тип торрента: публичный - доступные источники с открытых трекеров: 
Размер: 2,18 GB (занимает 1/2 DVDR, для записи нужно 1 болванка DVDR/RW)
 
 
Похожие темы
Форум Тема Автор Торрент Отв. Посл. сооб.
Зарубежное кино [DVDRip, Low-Res HDRip, и т.д.] Хищники / Predators (Нимрод Антал / Nimrod Antal) [2010 г., фантастика, боевик, триллер, приключения, BDRip] DuB + Original Чертёнок
10 | 0

0 | 1419

59

11.09.2013 10:44

Архив Хищники / Predators (Нимрод Антал) [2010 г., фантастика, боевик, триллер, приключения, ..., DVDRip] BartSimpson
0 | 0

3 | 1745

24

05.11.2011 14:44

Архив Хищники / Predators (Нимрод Антал / Nimrod Antal) [2010 г., боевик, приключения, триллер, фэнтези, DVD-9] SKRiptus
0 | 0

5 | 1433

8

16.06.2011 08:09



Последний раз редактировалось: GUree (29.09.2010 08:39), всего редактировалось 6 раз(а)

maddd Пол:Муж

25-Сен-2010 10:40

Блин, буквально 15 минут назад скачал :(

aleksndr Пол:Муж

25-Сен-2010 12:59

Скачал сегодня, фильм должен быть интересный. :)

GUree Пол:Муж

25-Сен-2010 22:21

Перезаливаю!!!!!

Причина: новые "фишки" в mkvmerge.... не всё медиа поддерживает!

Сори! Сори!

Всё исправил...

sexfuck 

21-Май-2011 04:41

жесть

Яндекс.Метрика powered by Sphinx


В Н И М А Н И Е
Сайт не распространяет и не хранит электронные версии произведений, а лишь бесплатно и без коммерческой выгоды (не требуя взамен платы,
SMS и т.д.) предоставляет доступ к создаваемому пользователями каталогу ссылок на торрент-файлы, которые содержат только списки хеш-сумм.
Убедительная просьба с жалобами обращаться напрямую к пользователю, разместившему торрент файл.

Вверх