Loading...
Error

Титаник 2 / Titanic II (Шэйн Ван Дайк) [2010 г., приключения, ..., DVDRip]

Статистика раздачи
Размер:  1,37 GB   |    Зарегистрирован:  6 лет 3 месяца   |    Скачан:  24 раза

Полного источника не было: 3 месяца 12 дней

Сидов:  0  |  0 KB/s  ]   Личеров:  0  |  0 KB/s  ]

* - сиды/пиры с внешних источников

   
 
Автор Сообщение

THE_MECHANIC Пол:Муж

30-Авг-2010 05:15



Год выпуска: 2010
Жанр: приключения, ...
Страна: США
Режиссер: Шэйн Ван Дайк
Брюс Дэвисон, Брук Бернс, Шэйн Ван Дайк, Мари Уэстбрук, Джералд Уэбб, Хармони Блоссом, Майлс Крэнфорд, Д.С. Дуглас, Эрика Дьюк, Майкл Гальо
К 100-летию первоначального рейса знаменитого лайнера приурочили выход в море современного роскошного корабля Титаник 2. Он должен проделать тот же путь, что и его предшественник. Но в пути его ждет опасность цунами перемещает айсберг и он оказывается на пути лайнера. Пассажиры и члены экипажа должны бороться, чтобы избежать печальной участи.
  • Мировая премьера: 24 августа 2010


6 - третий сорт не брак

DVDRip

Продолжительность: 01:29:50
Видео: кодек: XviD, размер кадра: 720x400, битрейт: 1 727 Kbps
Аудио: Русский Любительский (двухголосый), кодек: AC3 5.1, битрейт: 448 Kbps


General
Complete name : D:\Мои документы\Мои видеозаписи\Titanik.2.2010.L2.DVDRip.ELEKTRI4KA.avi
Format : AVI
Format/Info : Audio Video Interleave
File size : 1.37 GiB
Duration : 1h 29mn
Overall bit rate : 2 185 Kbps
Movie name : Titanic 2 (2010)
Director : ELEKTRI4KA
Writing application : VirtualDubMod 1.5.4.1 (build 2178/release)
Copyright : http://uniongang.tv/

Video
ID : 0
Format : MPEG-4 Visual
Format profile : Advanced Simple@L5
Format settings, BVOP : Yes
Format settings, QPel : No
Format settings, GMC : No warppoints
Format settings, Matrix : Default (H.263)
Codec ID : XVID
Codec ID/Hint : XviD
Duration : 1h 29mn
Bit rate : 1 727 Kbps
Width : 720 pixels
Height : 400 pixels
Display aspect ratio : 16:9
Frame rate : 23.976 fps
Color space : YUV
Chroma subsampling : 4:2:0
Bit depth : 8 bits
Scan type : Progressive
Bits/(Pixel*Frame) : 0.250
Stream size : 1.08 GiB (79%)
Writing library : XviD 1.2.1 (UTC 2008-12-04)

Audio
ID : 1
Format : AC-3
Format/Info : Audio Coding 3
Mode extension : CM (complete main)
Codec ID : 2000
Duration : 1h 29mn
Bit rate mode : Constant
Bit rate : 448 Kbps
Channel(s) : 6 channels
Channel positions : Front: L C R, Side: L R, LFE
Sampling rate : 48.0 KHz
Bit depth : 16 bits
Stream size : 288 MiB (21%)
Alignment : Split accross interleaves
Interleave, duration : 42 ms (1.00 video frame)
Interleave, preload duration : 500 ms

Этот торрент недоступен для скачивания без регистрации, однако доступен по публичной magnet-ссылке (источники с публичных трекеров). Перед использованием ссылки прочтите, пожалуйста Пользовательское соглашение, а также как можно дольше оставайтесь на раздаче! Для того, чтобы скачать сам торрент-файл (который видит больше источников), а также для того, чтобы поблагодарить релизера, вам необходимо зарегистрироваться. Если регистрироваться лень - вы можете также попробовать скачать релиз по нашим партнерским ссылкам ниже.

[underverse.su].t11788.torrent
Трекер: Зарегистрирован   [ 30.08.2010 05:15 ]  

Статус: проверено (by Паукан at 30.08.2010 05:23)
Поблагодарили: пока никто не поблагодарил...
Тип торрента: публичный - доступные источники с открытых трекеров: 
Размер: 1,37 GB (занимает 0,31 DVDR, для записи нужно 1 болванка DVDR/RW)
 
 

Joey Пол:Муж

30-Авг-2010 07:23

это Асулум :)

МУХА~ Пол:Муж

30-Авг-2010 12:37



Вот это рейтинги !!! :roll:


Последний раз редактировалось: МУХА~ (03.10.2010 13:11), всего редактировалось 1 раз

THE_MECHANIC Пол:Муж

30-Авг-2010 14:14

МУХА~
этого и нужно было ожидать...любителям может и понравится

1qaz1900 

04-Сен-2010 13:29

в раздумье качать или нет. херь наверно полная?

THE_MECHANIC Пол:Муж

04-Сен-2010 13:38

1qaz1900
по мне так

1qaz1900 писал(а):

херь полная
но думаю фанатам понравится

voland Пол:Муж

03-Окт-2010 13:09

Как такое можно смотреть? аж тошнить начинает.

THE_MECHANIC Пол:Муж

03-Окт-2010 14:06

voland
ну, тех кого тошнит от классики, я не признаю
а про этот...фильмец соглашусь - курение вредит здоровью

ligun 

05-Окт-2010 10:22

Имеет ли фильм какое либо отношение к первому Титанику?

AVATAR8 Пол:Муж

14-Июл-2012 13:05

Имеет очень отдаленное. А так фильм на один раз :(

Яндекс.Метрика powered by Sphinx


В Н И М А Н И Е
Сайт не распространяет и не хранит электронные версии произведений, а лишь бесплатно и без коммерческой выгоды (не требуя взамен платы,
SMS и т.д.) предоставляет доступ к создаваемому пользователями каталогу ссылок на торрент-файлы, которые содержат только списки хеш-сумм.
Убедительная просьба с жалобами обращаться напрямую к пользователю, разместившему торрент файл.

Вверх