Loading...
Error

Неудержимые / The Expendables (Сильвестр Сталлоне) [2010 г., боевик, триллер, приключения, ..., DVDRip]

Статистика раздачи
Размер:  1,37 GB   |    Зарегистрирован:  6 лет 3 месяца   |    Скачан:  100 раз

Полного источника не было: 2 года

Сидов:  0  |  0 KB/s  ]   Личеров:  0  |  0 KB/s  ]

* - сиды/пиры с внешних источников

   
 
Автор Сообщение

THE_MECHANIC Пол:Муж

28-Авг-2010 18:17




Год выпуска: 2010
Жанр: боевик, триллер, приключения, ...
Страна: США
Режиссер: Сильвестр Сталлоне
Шон Бин, Кэрис Ван Хаутен, Эдди Редмэйн, Кимберли Никсон, Дэвид Уорнер, Энди Найман, Джон Линч, Тим МакИннерни, Джонни Харрис, Emun Elliotpic
Отряд профессиональных наёмников и отчаянных парней во главе с Барни Россом получает непростое задание любой ценой найти и уничтожить кровавого тирана-диктатора, нагнетающего страх на мирное население и сеющего хаос в южноамериканской стране.

Отправляясь на выполнение нелёгкой миссии, закалённые огнём и водой, прошедшие не одну войну, люди Росса попадают в самое пекло. Отныне им придётся выживать: сплотиться и достигнуть цели, либо отчаяться и погибнуть. И всё же эти храбрые, поистине невозмутимые ребята готовы реализовать даже не реализуемое. Но не всё так просто, как кажется на первый взгляд

  • Мировая премьера: 3 августа 2010
  • Российская премьера: 11 августа 2010, Централ Партнершип


10 - всем советую

DVDRip

Продолжительность: 01:38:40
Видео: кодек: XviD, размер кадра: 720x400, битрейт: 1585 Kbps
Аудио #1: русский дублированный (дубляж), кодек: MP3 , битрейт: 192 Kbps
Аудио #2: английский дублированный (дубляж), кодек: MP3 , битрейт: 192 Kbps


General
Complete name : D:\Мои документы\Мои видеозаписи\Neuderzhimie.2010.Dc.DVDRip.SyncFixed.avi
Format : AVI
Format/Info : Audio Video Interleave
File size : 1.37 GiB
Duration : 1h 38mn
Overall bit rate : 1 991 Kbps
Writing application : VirtualDubMod 1.5.10.2 (build 2540/release)
Writing library : VirtualDubMod build 2540/release

Video
ID : 0
Format : MPEG-4 Visual
Format profile : Advanced Simple@L5
Format settings, BVOP : Yes
Format settings, QPel : No
Format settings, GMC : No warppoints
Format settings, Matrix : Custom
Codec ID : XVID
Codec ID/Hint : XviD
Duration : 1h 38mn
Bit rate : 1 592 Kbps
Width : 720 pixels
Height : 400 pixels
Display aspect ratio : 16:9
Frame rate : 25.000 fps
Color space : YUV
Chroma subsampling : 4:2:0
Bit depth : 8 bits
Scan type : Progressive
Bits/(Pixel*Frame) : 0.221
Stream size : 1.10 GiB (80%)
Writing library : XviD 1.2.1 (UTC 2008-12-04)

Audio #1
ID : 1
Format : MPEG Audio
Format version : Version 1
Format profile : Layer 3
Mode : Joint stereo
Mode extension : MS Stereo
Codec ID : 55
Codec ID/Hint : MP3
Duration : 1h 38mn
Bit rate mode : Constant
Bit rate : 192 Kbps
Channel(s) : 2 channels
Sampling rate : 48.0 KHz
Stream size : 136 MiB (10%)
Alignment : Aligned on interleaves
Interleave, duration : 40 ms (1.00 video frame)
Interleave, preload duration : 504 ms
Writing library : LAME3.98 (alpha)

Audio #2
ID : 2
Format : MPEG Audio
Format version : Version 1
Format profile : Layer 3
Mode : Joint stereo
Mode extension : MS Stereo
Codec ID : 55
Codec ID/Hint : MP3
Duration : 1h 38mn
Bit rate mode : Constant
Bit rate : 192 Kbps
Channel(s) : 2 channels
Sampling rate : 48.0 KHz
Stream size : 136 MiB (10%)
Alignment : Aligned on interleaves
Interleave, duration : 40 ms (1.00 video frame)
Interleave, preload duration : 504 ms
Writing library : LAME3.98 (alpha)



Этот торрент доступен для скачивания без регистрации. Перед тем, как его скачать, прочтите, пожалуйста Пользовательское соглашение, а также как можно дольше оставайтесь на раздаче! Также вы можете выкладывать этот торрент или ссылку на него на других интернет-ресурсах, в том числе на торрент трекерах. Для получение более подробной информации о релизе, а также для того, чтобы поблагодарить релизера, вам необходимо зарегистрироваться.

[underverse.su].t11772.torrent
Трекер: Зарегистрирован   [ 28.08.2010 18:17 ]   [ торрент доступен для скачивания без регистрации ]

Статус: проверено (by Bratok at 29.08.2010 04:11)
Поблагодарили: 4 человека
Тип торрента: публичный - доступные источники с открытых трекеров: 
Размер: 1,37 GB (занимает 0,31 DVDR, для записи нужно 1 болванка DVDR/RW)
 
 
Похожие темы
Форум Тема Автор Торрент Отв. Посл. сооб.
Зарубежное кино [DVDRip, Low-Res HDRip, и т.д.] Неудержимые / The Expendables [2010 г., боевик, триллер, приключения , HDRip][Лицензия] P.O.C.O.X.A
0 | 0

1 | 1157

44

27.03.2011 15:17

Зарубежное кино [DVDRip, Low-Res HDRip, и т.д.] Неудержимые викинги / Sweaty Beards (Йоаким Ярдеби) [2010 г., комедия, DVDRip] RG NewCinema
6 | 0

0 | 888

30

16.09.2012 21:41

Зарубежное кино [DVDRip, Low-Res HDRip, и т.д.] Неудержимые 2 / The Expendables 2 (Саймон Уэст) [2012 г., Боевик, приключения, HDRip] Dub [Лицензия] 90ytr90
3 | 0

2 | 2148

305

08.10.2012 09:00

Зарубежное кино [DVDRip, Low-Res HDRip, и т.д.] Неудержимые 2 / The Expendables 2 (Саймон Уэст / Simon West) [2012, США, боевик, триллер, приключения, HDRip-AVC] Dub + Sub Rus + Original Eng Garnett
5 | 0

1 | 817

6

12.12.2012 18:59

Зарубежное кино [DVDRip, Low-Res HDRip, и т.д.] Неудержимые 2 / The Expendables 2 (Саймон Уэст) [2012 г., боевик, приключения, HDRip] Dub + Eng 90ytr90
12 | 0

0 | 1184

33

10.03.2013 16:48

Зарубежное кино [DVDRip, Low-Res HDRip, и т.д.] Неудержимые 2 / The Expendables 2 (Саймон Уэст) [2012 г., боевик, триллер, приключения, BDRip] AVO (Гоблин) + Dub Mahmud_1
4 | 0

0 | 1262

36

25.03.2013 12:10

Зарубежное кино [DVDRip, Low-Res HDRip, и т.д.] Неудержимый / Bullet to the Head (Уолтер Хилл) [2012 г., боевик, триллер, криминал, BDRip] Dub garry
10 | 0

0 | 1565

27

27.10.2013 13:12

Зарубежное кино [DVDRip, Low-Res HDRip, и т.д.] Неудержимый / Bullet to the Head (Уолтер Хилл) [2012 г., боевик, триллер, криминал, BDRip-AVC] Dub garry
3 | 0

0 | 609

22

27.10.2013 14:10

T Зарубежное кино [DVDRip, Low-Res HDRip, и т.д.] Неудержимые 3 / The Expendables 3 (Патрик Хьюз) [2014 г., боевик, триллер, приключения, WEB-DLRip] MVO + Original Паукан
0 | 2

0 | 2459

258

30.07.2014 10:10

Зарубежное кино [DVDRip, Low-Res HDRip, и т.д.] Неудержимые 3 / The Expendables 3 (Патрик Хьюз / Patrick Hughes) [2014 г., боевик, триллер, приключения, HDRip-AVC] [Teatrical Cut] Dub + Original (Eng) + Sub (Rus, Eng) 90ytr90
4 | 0

0 | 570

6

22.11.2014 09:00

silenthorror Пол:Муж

13-Сен-2010 18:35

Спасибо автору) Хоть сюжет слабый, проще сказать вообще никакой. Ну фильм лично меня порадовал, мозг был взорван) Актерский состав просто шикарный, ну о чем еще мечтать человеку который вырос на боевиках 90х годов. Этот фильм для людей которые уже давно не видили хорошие боевики и скучают по фильмам добрых 90х) Даже ностальгию вызывает фильм, приходит понимание того, что нет смены этим актерам. В общем кино очень хорошее советую всем качать. Сталлоне порадовал как режиссер, да и как актер он хорош. Драки поставлены просто мастерски, даже мурашки пробежали когда в узком коредоре была бойня рукопашная. СПАСИБО.

zoomych1 

21-Сен-2010 14:24

Отлично!

san77 Пол:Муж

21-Сен-2010 17:03

фильм хороший , но экранка

Паукан Пол:Муж

22-Сен-2010 02:36

san77
это просто у буржуйских лицензий такое качество :)
возможно, в качестве источников была взята так называемая TeleCine (TC) - захваченная камерой, одетой прямо на обьектив проектора. Качество в таком случае сравнимо с ДВДрипом.

zoomych1 

22-Сен-2010 13:54

Классический экшен. Сюжета нет. Вчера смотрел, пытаюсь вспомнить про что фильм :)))

Crusader1986 Пол:Муж

03-Окт-2010 12:53

благодарю

ахерон Пол:Муж

31-Июл-2012 19:34

дякую :P

Яндекс.Метрика powered by Sphinx


В Н И М А Н И Е
Сайт не распространяет и не хранит электронные версии произведений, а лишь бесплатно и без коммерческой выгоды (не требуя взамен платы,
SMS и т.д.) предоставляет доступ к создаваемому пользователями каталогу ссылок на торрент-файлы, которые содержат только списки хеш-сумм.
Убедительная просьба с жалобами обращаться напрямую к пользователю, разместившему торрент файл.

Вверх